<?xml version="1.0" standalone="no"?>
<!DOCTYPE svg PUBLIC "-//W3C//DTD SVG 1.1//EN" "http://www.w3.org/Graphics/SVG/1.1/DTD/svg11.dtd" >
<svg xmlns="http://www.w3.org/2000/svg" xmlns:xlink="http://www.w3.org/1999/xlink" version="1.1">
<metadata>
Created by FontForge 20190801 at Tue Oct  9 11:22:50 2001
 By Jimmy Wärting
Copyright (c) 2000, 2001 Adobe Systems Incorporated.  All Rights Reserved. U.S.Patent Des. 318,290 and 327,903.
</metadata>
<defs>
<font id="AGaramondPro-Regular" horiz-adv-x="360" >
  <font-face 
    font-family="Adobe Garamond Pro"
    font-weight="400"
    font-stretch="normal"
    units-per-em="1000"
    panose-1="2 2 5 2 6 5 6 2 4 3"
    ascent="725"
    descent="-275"
    x-height="397"
    cap-height="663"
    bbox="-183 -354 1354.02 917"
    underline-thickness="50"
    underline-position="-100"
    stemh="40"
    stemv="74"
    unicode-range="U+0020-FB04"
  />
<missing-glyph horiz-adv-x="500" 
d="M0 0v700h500v-700h-500zM250 395l170 255h-340zM280 350l170 -255v510zM80 50h340l-170 255zM50 605v-510l170 255z" />
    <glyph glyph-name="fi" unicode="fi" horiz-adv-x="522" 
d="M95 112v211c0 27 0 29 -20 29h-35c-6 4 -7 13 -3 19l43 21c8 4 15 10 15 20c0 57 8 115 31 168c21 51 82 135 194 135c68 0 124 -36 124 -78c0 -30 -26 -41 -41 -41c-14 0 -21 7 -26 15c-29 49 -68 66 -94 66c-78 0 -114 -86 -114 -241v-11c0 -25 2 -31 19 -31h112
c44 0 107 6 131 15c4 0 8 -2 10 -5c-2 -36 -4 -84 -4 -125v-167c0 -72 2 -82 38 -87l21 -3c7 -5 5 -22 -2 -25c-30 2 -59 3 -94 3c-36 0 -66 -1 -94 -3c-7 3 -9 20 -2 25l21 3c37 5 38 15 38 87v174c0 61 -7 66 -50 66h-125c-17 0 -19 -7 -19 -31v-209c0 -72 2 -84 38 -87
l32 -3c7 -5 5 -22 -2 -25c-41 2 -70 3 -105 3c-36 0 -66 -1 -96 -3c-7 3 -9 20 -2 25l23 3c37 5 38 15 38 87z" />
    <glyph glyph-name="fl" unicode="fl" horiz-adv-x="522" 
d="M344 352h-156c-18 0 -19 0 -19 -31v-209c0 -72 2 -84 38 -87l31 -3c7 -5 5 -22 -2 -25c-40 2 -69 3 -104 3c-36 0 -66 -1 -96 -3c-7 3 -9 20 -2 25l23 3c37 5 38 15 38 87v211c0 27 0 29 -20 29h-35c-6 4 -7 13 -3 19l43 21c8 4 15 10 15 20c0 63 4 118 27 174
c22 54 80 129 187 129c32 0 64 -8 93 -26l26 26c5 0 9 -1 12 -4c-2 -44 -3 -106 -3 -149v-450c0 -72 2 -82 38 -87l24 -3c7 -5 5 -22 -2 -25c-33 2 -62 3 -97 3c-36 0 -66 -1 -96 -3c-7 3 -9 20 -2 25l23 3c37 5 38 15 38 87v220c0 17 -1 20 -19 20zM363 414v161
c0 34 -5 60 -17 76c-11 14 -34 32 -61 32c-111 0 -116 -153 -116 -237v-31c0 -20 2 -21 19 -21h156c15 0 19 2 19 20z" />
    <glyph glyph-name="ff" unicode="ff" horiz-adv-x="558" 
d="M95 112v211c0 27 0 29 -20 29h-35c-6 4 -7 13 -3 19l43 21c8 4 15 10 15 20c0 34 8 100 34 155c28 58 86 124 184 124c62 0 98 -27 113 -44c24 31 83 68 149 68c52 0 95 -24 95 -60c0 -20 -18 -36 -36 -36c-10 0 -16 4 -24 13c-18 21 -47 44 -78 44
c-33 0 -58 -20 -72 -54c-17 -43 -23 -106 -23 -171v-29c0 -27 0 -28 17 -28h114c11 -10 4 -38 -7 -42h-107c-17 0 -17 -2 -17 -29v-211c0 -72 2 -84 38 -87l32 -3c7 -5 5 -22 -2 -25c-41 2 -70 3 -105 3c-36 0 -66 -1 -96 -3c-7 3 -9 20 -2 25l23 3c37 5 38 15 38 87v211
c0 27 0 29 -20 29h-157c-17 0 -17 -2 -17 -29v-211c0 -72 2 -84 38 -87l36 -3c7 -5 5 -22 -2 -25c-45 2 -74 3 -109 3c-36 0 -66 -1 -96 -3c-7 3 -9 20 -2 25l23 3c37 5 38 15 38 87zM198 394h150c8 0 15 8 15 18c0 62 8 115 25 173c-9 31 -46 71 -99 71
c-109 0 -120 -124 -120 -229v-5c0 -27 0 -28 29 -28z" />
    <glyph glyph-name="ffi" unicode="ffi" horiz-adv-x="790" 
d="M95 112v211c0 27 0 29 -20 29h-35c-6 4 -7 13 -3 19l43 21c8 4 15 10 15 20c0 34 8 100 34 155c28 58 86 124 184 124c62 0 102 -27 115 -45c26 32 84 69 160 69c68 0 124 -36 124 -78c0 -30 -26 -41 -41 -41c-14 0 -21 7 -26 15c-29 49 -68 66 -94 66
c-78 0 -114 -82 -114 -241v-11c0 -25 2 -31 19 -31h112c44 0 107 6 131 15c4 0 8 -2 10 -5c-2 -36 -4 -84 -4 -125v-167c0 -72 2 -82 38 -87l21 -3c7 -5 5 -22 -2 -25c-30 2 -59 3 -94 3c-36 0 -66 -1 -94 -3c-7 3 -9 20 -2 25l21 3c37 5 38 15 38 87v174c0 61 -7 66 -50 66
h-125c-17 0 -19 -7 -19 -31v-209c0 -72 2 -84 38 -87l32 -3c7 -5 5 -22 -2 -25c-41 2 -70 3 -105 3c-36 0 -66 -1 -96 -3c-7 3 -9 20 -2 25l23 3c37 5 38 15 38 87v211c0 27 0 29 -20 29h-157c-17 0 -17 -2 -17 -29v-211c0 -72 2 -84 38 -87l36 -3c7 -5 5 -22 -2 -25
c-45 2 -74 3 -109 3c-36 0 -66 -1 -96 -3c-7 3 -9 20 -2 25l23 3c37 5 38 15 38 87zM198 394h150c8 0 15 8 15 18c0 62 8 115 26 172c-9 32 -47 72 -100 72c-109 0 -120 -124 -120 -229v-5c0 -27 0 -28 29 -28z" />
    <glyph glyph-name="ffl" unicode="ffl" horiz-adv-x="789" 
d="M95 112v211c0 27 0 29 -20 29h-35c-6 4 -7 13 -3 19l43 21c8 4 15 10 15 20c0 34 8 100 34 155c28 58 86 124 184 124c62 0 98 -27 113 -44c24 31 81 68 147 68c36 0 68 -8 97 -26l26 26c5 0 8 0 12 -4c-2 -44 -3 -106 -3 -149v-450c0 -72 2 -82 38 -87l23 -3
c7 -5 5 -22 -2 -25c-32 2 -61 3 -96 3c-36 0 -66 -1 -94 -3c-7 3 -9 20 -2 25l21 3c37 5 38 15 38 87v220c0 17 -1 20 -19 20h-156c-18 0 -19 0 -19 -31v-209c0 -72 2 -84 38 -87l32 -3c7 -5 5 -22 -2 -25c-41 2 -70 3 -105 3c-36 0 -66 -1 -96 -3c-7 3 -9 20 -2 25l23 3
c37 5 38 15 38 87v211c0 27 0 29 -20 29h-157c-17 0 -17 -2 -17 -29v-211c0 -72 2 -84 38 -87l36 -3c7 -5 5 -22 -2 -25c-45 2 -74 3 -109 3c-36 0 -66 -1 -96 -3c-7 3 -9 20 -2 25l23 3c37 5 38 15 38 87zM198 394h150c8 0 15 8 15 18c0 62 8 115 25 173
c-9 31 -46 71 -99 71c-109 0 -120 -124 -120 -229v-5c0 -27 0 -28 29 -28zM631 414v161c0 34 -5 60 -17 76c-13 17 -34 32 -61 32c-111 0 -116 -153 -116 -237v-31c0 -20 2 -21 19 -21h156c15 0 19 2 19 20z" />
    <glyph glyph-name="f_j" unicode="fj" horiz-adv-x="514" 
d="M95 112v211c0 27 0 29 -20 29h-35c-6 4 -7 13 -3 19l43 21c8 4 15 10 15 20c0 57 8 115 31 168c21 51 82 135 194 135c68 0 124 -36 124 -78c0 -30 -26 -41 -41 -41c-14 0 -21 7 -26 15c-29 49 -68 66 -94 66c-78 0 -114 -86 -114 -241v-11c0 -25 2 -31 19 -31h112
c44 0 107 6 131 15c4 0 8 -2 10 -5c-2 -36 -4 -84 -4 -125v-229c0 -72 -7 -122 -21 -156c-30 -72 -83 -120 -152 -163c-12 2 -18 13 -14 23c26 13 45 29 59 45c36 42 54 114 54 236v251c0 61 -7 66 -50 66h-125c-17 0 -19 -7 -19 -31v-209c0 -72 2 -84 38 -87l32 -3
c7 -5 5 -22 -2 -25c-41 2 -70 3 -105 3c-36 0 -66 -1 -96 -3c-7 3 -9 20 -2 25l23 3c37 5 38 15 38 87z" />
    <glyph glyph-name="f_f_j" unicode="ffj" horiz-adv-x="782" 
d="M95 112v211c0 27 0 29 -20 29h-35c-6 4 -7 13 -3 19l43 21c8 4 15 10 15 20c0 34 8 100 34 155c28 58 86 124 184 124c62 0 102 -27 115 -45c26 32 84 69 160 69c68 0 124 -36 124 -78c0 -30 -26 -41 -41 -41c-14 0 -21 7 -26 15c-29 49 -68 66 -94 66
c-78 0 -114 -82 -114 -241v-11c0 -25 2 -31 19 -31h112c44 0 107 6 131 15c4 0 8 -2 10 -5c-2 -36 -4 -84 -4 -125v-229c0 -72 -7 -122 -21 -156c-30 -72 -83 -120 -152 -163c-12 2 -18 13 -14 23c26 13 45 29 59 45c36 42 54 114 54 236v251c0 61 -7 66 -50 66h-125
c-17 0 -19 -7 -19 -31v-209c0 -72 2 -84 38 -87l32 -3c7 -5 5 -22 -2 -25c-41 2 -70 3 -105 3c-36 0 -66 -1 -96 -3c-7 3 -9 20 -2 25l23 3c37 5 38 15 38 87v211c0 27 0 29 -20 29h-157c-17 0 -17 -2 -17 -29v-211c0 -72 2 -84 38 -87l36 -3c7 -5 5 -22 -2 -25
c-45 2 -74 3 -109 3c-36 0 -66 -1 -96 -3c-7 3 -9 20 -2 25l23 3c37 5 38 15 38 87zM198 394h150c8 0 15 8 15 18c0 62 8 115 26 172c-9 32 -47 72 -100 72c-109 0 -120 -124 -120 -229v-5c0 -27 0 -28 29 -28z" />
    <glyph glyph-name="T_h" unicode="Th" horiz-adv-x="1065" 
d="M296 150v447c0 31 0 32 -30 32h-65c-43 0 -98 -2 -123 -25c-24 -22 -34 -44 -45 -69c-8 -6 -22 -1 -26 7c16 45 31 109 38 149c3 2 16 3 19 0c6 -32 39 -31 85 -31h415c55 0 71 6 74 14v14l67 27c4 0 8 -2 10 -6c-1 -30 -3 -80 -3 -124v-210c0 -9 1 -17 4 -19
c36 28 84 52 135 52c95 0 129 -59 129 -129v-167c0 -72 2 -83 38 -87l27 -3c7 -5 5 -22 -2 -25c-36 2 -65 3 -100 3c-36 0 -66 -1 -93 -3c-7 3 -9 20 -2 25l20 3c37 6 38 15 38 87v143c0 64 -31 107 -95 107c-34 0 -60 -12 -78 -27s-21 -20 -21 -55v-168c0 -72 2 -82 38 -87
l21 -3c7 -4 5 -22 -2 -25c-30 2 -59 3 -94 3c-36 0 -66 -1 -98 -3c-7 3 -9 20 -2 25l25 3c37 4 38 15 38 87v447c0 63 -23 70 -140 70h-91c-30 0 -29 -1 -29 -34v-445c0 -105 2 -120 60 -125l32 -3c6 -4 4 -22 -2 -25c-57 2 -91 3 -131 3s-75 -1 -139 -3c-6 3 -8 20 0 25
l36 3c57 5 62 20 62 125z" />
    <glyph glyph-name="T_h.commaaccent" unicode="&#x162;h" horiz-adv-x="1065" 
d="M296 150v447c0 31 0 32 -30 32h-65c-43 0 -98 -2 -123 -25c-24 -22 -34 -44 -45 -69c-8 -6 -22 -1 -26 7c16 45 31 109 38 149c3 2 16 3 19 0c6 -32 39 -31 85 -31h415c55 0 71 6 74 14v14l67 27c4 0 8 -2 10 -6c-1 -30 -3 -80 -3 -124v-210c0 -9 1 -17 4 -19
c36 28 84 52 135 52c95 0 129 -59 129 -129v-167c0 -72 2 -83 38 -87l27 -3c7 -5 5 -22 -2 -25c-36 2 -65 3 -100 3c-36 0 -66 -1 -93 -3c-7 3 -9 20 -2 25l20 3c37 6 38 15 38 87v143c0 64 -31 107 -95 107c-34 0 -60 -12 -78 -27s-21 -20 -21 -55v-168c0 -72 2 -82 38 -87
l21 -3c7 -4 5 -22 -2 -25c-30 2 -59 3 -94 3c-36 0 -66 -1 -98 -3c-7 3 -9 20 -2 25l25 3c37 4 38 15 38 87v447c0 63 -23 70 -140 70h-91c-30 0 -29 -1 -29 -34v-445c0 -105 2 -120 60 -125l32 -3c6 -4 4 -22 -2 -25c-57 2 -91 3 -131 3s-75 -1 -139 -3c-6 3 -8 20 0 25
l36 3c57 5 62 20 62 125zM318 -58c29 0 67 -27 67 -83c0 -71 -51 -110 -110 -128c-8 4 -9 27 -5 31c24 8 63 31 63 70c0 31 -35 43 -42 47c-11 6 -15 15 -15 25c0 19 15 38 42 38z" />
    <glyph glyph-name="T_h.caron" unicode="&#x164;h" horiz-adv-x="1065" 
d="M296 150v447c0 31 0 32 -30 32h-65c-43 0 -98 -2 -123 -25c-24 -22 -34 -44 -45 -69c-8 -6 -22 -1 -26 7c16 45 31 109 38 149c3 2 16 3 19 0c6 -32 39 -31 85 -31h415c55 0 71 6 74 14v14l67 27c4 0 8 -2 10 -6c-1 -30 -3 -80 -3 -124v-210c0 -9 1 -17 4 -19
c36 28 84 52 135 52c95 0 129 -59 129 -129v-167c0 -72 2 -83 38 -87l27 -3c7 -5 5 -22 -2 -25c-36 2 -65 3 -100 3c-36 0 -66 -1 -93 -3c-7 3 -9 20 -2 25l20 3c37 6 38 15 38 87v143c0 64 -31 107 -95 107c-34 0 -60 -12 -78 -27s-21 -20 -21 -55v-168c0 -72 2 -82 38 -87
l21 -3c7 -4 5 -22 -2 -25c-30 2 -59 3 -94 3c-36 0 -66 -1 -98 -3c-7 3 -9 20 -2 25l25 3c37 4 38 15 38 87v447c0 63 -23 70 -140 70h-91c-30 0 -29 -1 -29 -34v-445c0 -105 2 -120 60 -125l32 -3c6 -4 4 -22 -2 -25c-57 2 -91 3 -131 3s-75 -1 -139 -3c-6 3 -8 20 0 25
l36 3c57 5 62 20 62 125zM312 713l-123 113c0 9 6 20 14 20l114 -57c13 -8 17 -7 32 0l116 57c6 -1 11 -11 11 -20l-122 -113c-14 -13 -28 -12 -42 0z" />
    <glyph glyph-name=".notdef" horiz-adv-x="500" 
d="M0 0v700h500v-700h-500zM250 395l170 255h-340zM280 350l170 -255v510zM80 50h340l-170 255zM50 605v-510l170 255z" />
    <glyph glyph-name="space" unicode=" " horiz-adv-x="250" 
 />
    <glyph glyph-name="space" unicode="&#xa0;" horiz-adv-x="250" 
 />
    <glyph glyph-name="exclam" unicode="!" horiz-adv-x="220" 
d="M110 -14c-29 0 -56 21 -56 55s24 59 56 59c34 0 56 -27 56 -59s-22 -55 -56 -55zM110 646c32 0 49 -4 49 -29c0 -15 -2 -36 -7 -89l-29 -323c-6 -6 -21 -6 -26 0l-29 323c-5 53 -7 74 -7 89c0 25 17 29 49 29z" />
    <glyph glyph-name="quotedbl" unicode="&#x22;" horiz-adv-x="404" 
d="M122 700c28 0 43 -2 43 -24c0 -7 -2 -18 -5 -39l-26 -161c-8 -8 -16 -8 -24 0l-26 161c-3 21 -5 32 -5 39c0 22 15 24 43 24zM282 700c28 0 43 -2 43 -24c0 -7 -2 -18 -5 -39l-26 -161c-8 -8 -16 -8 -24 0l-26 161c-3 21 -5 32 -5 39c0 22 15 24 43 24z" />
    <glyph glyph-name="numbersign" unicode="#" horiz-adv-x="500" 
d="M334 403h-117l-44 -162h118zM478 403h-102l-44 -162h99l-15 -50h-98l-51 -188h-39l50 188h-119l-51 -188h-38l50 188h-111l15 50h109l43 162h-112l16 50h109l45 171h43l-46 -171h116l45 171h44l-46 -171h101z" />
    <glyph glyph-name="dollar" unicode="$" horiz-adv-x="500" 
d="M251 383l27 228c-102 -1 -120 -64 -120 -108c0 -54 42 -92 93 -120zM272 285l-31 -254c67 -1 130 28 130 108c0 45 -10 98 -99 146zM325 717l-10 -78c31 -1 64 -7 100 -15c9 -22 20 -76 21 -113c-3 -7 -16 -9 -22 -3c-12 30 -33 84 -102 100l-30 -242l42 -22
c69 -36 120 -89 120 -171c0 -100 -79 -173 -207 -173l-11 -94c-8 -6 -26 -6 -33 0l12 96c-67 4 -107 23 -122 32c-16 19 -28 73 -28 131c4 6 15 10 22 3c13 -43 47 -116 131 -134l33 267l-38 19c-58 29 -112 86 -112 160c0 88 69 157 191 160l9 77c5 7 28 7 34 0z" />
    <glyph glyph-name="percent" unicode="%" horiz-adv-x="844" 
d="M799 180c0 -79 -45 -194 -153 -194s-153 115 -153 194c0 80 45 194 153 194s153 -114 153 -194zM727 180c0 52 -8 166 -80 166c-71 0 -82 -112 -82 -166s11 -166 82 -166c72 0 80 114 80 166zM351 446c0 -79 -45 -194 -153 -194s-153 115 -153 194c0 80 45 194 153 194
s153 -114 153 -194zM279 446c0 52 -8 166 -80 166c-71 0 -82 -112 -82 -166s11 -166 82 -166c72 0 80 114 80 166zM636 635l-407 -675c-16 0 -30 9 -30 22l404 670c10 1 24 -5 33 -17z" />
    <glyph glyph-name="ampersand" unicode="&#x26;" horiz-adv-x="818" 
d="M575 478h82c75 0 114 2 141 4c7 -5 7 -18 2 -24l-44 -7c-55 -9 -84 -59 -115 -109c-33 -53 -74 -109 -116 -167c17 -27 23 -35 33 -50c53 -81 104 -90 145 -90c31 0 67 12 90 36c8 -1 14 -9 11 -18c-40 -50 -97 -67 -159 -67c-45 0 -88 12 -107 29c-15 13 -50 73 -61 92
c-57 -64 -129 -121 -218 -121c-141 0 -196 101 -196 180c0 104 73 165 162 218c-36 25 -77 64 -77 121c0 79 68 135 140 135c76 0 129 -50 129 -119c0 -66 -52 -92 -101 -120c55 -34 124 -98 191 -196c23 31 76 117 104 175c17 34 22 49 22 55c0 7 -10 13 -26 15l-34 4
c-6 6 -6 19 2 24zM251 363c-50 -25 -113 -86 -113 -167c0 -89 61 -151 149 -151c67 0 127 39 172 92c-48 84 -128 173 -208 226zM284 611c-44 0 -72 -41 -72 -82c0 -42 28 -78 82 -109c34 23 60 56 60 104c0 44 -22 87 -70 87z" />
    <glyph glyph-name="quoteright" unicode="&#x2019;" horiz-adv-x="235" 
d="M103 700c41 0 77 -44 77 -96c0 -69 -54 -117 -117 -136c-8 4 -12 14 -7 21c37 17 76 45 76 86c0 38 -31 55 -50 56c-14 1 -27 9 -27 28c0 15 9 41 48 41z" />
    <glyph glyph-name="parenleft" unicode="(" horiz-adv-x="320" 
d="M146 270c0 -180 55 -314 154 -418c0 -10 -4 -14 -14 -15c-123 81 -206 246 -206 433s83 352 206 433c10 -1 14 -5 14 -15c-99 -104 -154 -238 -154 -418z" />
    <glyph glyph-name="parenright" unicode=")" horiz-adv-x="320" 
d="M174 270c0 180 -55 314 -154 418c0 10 4 14 14 15c123 -81 206 -246 206 -433s-83 -352 -206 -433c-10 1 -14 5 -14 15c99 104 154 238 154 418z" />
    <glyph glyph-name="asterisk" unicode="*" horiz-adv-x="394" 
d="M210 676l10 -130l125 63c9 -1 15 -12 12 -21l-115 -80l114 -79c3 -9 -2 -21 -12 -22l-124 65l-10 -130c-6 -5 -18 -5 -24 0l-11 130l-124 -65c-9 1 -15 13 -12 22l114 79l-115 80c-3 9 3 20 12 21l125 -63l11 130c6 5 17 5 24 0z" />
    <glyph glyph-name="plus" unicode="+" horiz-adv-x="500" 
d="M280 0h-59v181h-163v49h163v164h59v-164h163v-49h-163v-181z" />
    <glyph glyph-name="comma" unicode="," horiz-adv-x="250" 
d="M113 122c35 0 79 -32 79 -98c0 -79 -60 -124 -130 -145c-9 3 -12 19 -6 24c31 10 82 35 82 87c0 42 -48 53 -57 58c-13 7 -17 17 -17 29c0 23 17 45 49 45z" />
    <glyph glyph-name="hyphen" unicode="-" horiz-adv-x="320" 
d="M40 225l233 22c11 -7 15 -19 15 -32c0 -10 -3 -19 -8 -25l-233 -22c-11 9 -15 22 -15 32s3 19 8 25z" />
    <glyph glyph-name="hyphen" unicode="&#xad;" horiz-adv-x="320" 
d="M40 225l233 22c11 -7 15 -19 15 -32c0 -10 -3 -19 -8 -25l-233 -22c-11 9 -15 22 -15 32s3 19 8 25z" />
    <glyph glyph-name="period" unicode="." horiz-adv-x="250" 
d="M125 -14c-29 0 -56 21 -56 55s24 59 56 59c34 0 56 -27 56 -59s-22 -55 -56 -55z" />
    <glyph glyph-name="slash" unicode="/" horiz-adv-x="327" 
d="M297 686l-209 -702h-58l209 702h58z" />
    <glyph glyph-name="zero" unicode="0" horiz-adv-x="500" 
d="M250 640c146 0 207 -176 207 -327c0 -157 -61 -327 -207 -327s-207 170 -207 327c0 151 61 327 207 327zM250 610c-110 0 -118 -203 -118 -297s8 -297 118 -297s118 203 118 297s-8 297 -118 297z" />
    <glyph glyph-name="one" unicode="1" horiz-adv-x="500" 
d="M220 122v340c0 68 -3 90 -48 94l-48 4c-8 4 -9 18 -1 22c84 15 139 41 165 58c4 0 8 -2 10 -5c-2 -18 -4 -68 -4 -125v-388c0 -77 2 -94 43 -97l42 -3c6 -6 5 -22 -2 -25c-39 2 -84 3 -119 3c-36 0 -81 -1 -120 -3c-7 3 -8 19 -2 25l41 3c42 3 43 20 43 97z" />
    <glyph glyph-name="two" unicode="2" horiz-adv-x="500" 
d="M192 62h124c46 0 76 6 94 22c19 17 26 30 32 41c7 3 18 0 22 -6c-13 -50 -31 -102 -46 -122c-41 2 -83 3 -129 3h-145c-56 0 -89 -1 -111 -3c-2 1 -7 5 -7 13c0 3 5 7 11 11c46 30 79 64 153 144c66 71 143 168 143 275c0 91 -44 146 -125 146c-60 0 -103 -41 -130 -100
c-9 -5 -24 0 -24 13c32 88 111 141 201 141c100 0 165 -67 165 -163c0 -62 -29 -130 -107 -220l-61 -70c-82 -94 -91 -110 -91 -116c0 -7 5 -9 31 -9z" />
    <glyph glyph-name="three" unicode="3" horiz-adv-x="500" 
d="M140 -56c-45 0 -99 15 -99 62c0 20 15 39 39 39s37 -20 48 -36c13 -19 25 -30 53 -30c65 0 179 85 179 196c0 88 -42 163 -129 163c-49 0 -85 -24 -108 -49c-16 2 -28 16 -22 35c38 17 120 54 160 87c22 18 53 48 53 96c0 53 -37 86 -82 86c-59 0 -104 -37 -135 -88
c-10 -2 -21 4 -21 14c31 70 104 121 181 121c82 0 139 -44 139 -115c0 -41 -16 -80 -107 -128c-5 -10 0 -14 12 -15c76 -6 145 -59 145 -154c0 -72 -35 -144 -97 -198c-74 -65 -160 -86 -209 -86z" />
    <glyph glyph-name="four" unicode="4" horiz-adv-x="500" 
d="M273 189h-239c-9 0 -14 7 -14 17c0 12 4 18 18 38l321 448c7 9 13 14 23 14h17c10 0 15 -3 15 -8c0 -3 -2 -7 -5 -11l-318 -440c-12 -16 2 -16 28 -16h155c24 0 28 3 28 26v184c0 7 1 15 9 20c12 8 35 16 51 17c14 1 14 -11 14 -31v-193c0 -19 3 -23 20 -23h64
c9 -7 9 -33 0 -42h-54c-25 0 -30 -1 -30 -22v-45c0 -79 2 -92 43 -97l26 -3c6 -6 5 -22 -2 -25c-36 2 -73 3 -104 3c-36 0 -81 -1 -125 -3c-7 3 -8 19 -2 25l45 3c42 3 45 20 45 97v42c0 24 -3 25 -29 25z" />
    <glyph glyph-name="five" unicode="5" horiz-adv-x="500" 
d="M78 415l53 178c5 16 10 25 26 27l241 34c6 1 9 -5 9 -9c-7 -22 -22 -47 -36 -62l-189 -27c-23 -3 -28 -8 -34 -27l-18 -60c-4 -12 0 -17 14 -18l21 -2c125 -12 265 -67 265 -219c0 -173 -199 -293 -358 -298c-11 4 -12 24 -3 31c155 9 287 104 287 241
c0 142 -151 178 -269 180c-15 0 -16 8 -9 31z" />
    <glyph glyph-name="six" unicode="6" horiz-adv-x="500" 
d="M40 236c0 85 28 209 134 313c104 102 226 134 287 142c7 -3 9 -16 4 -21c-64 -22 -150 -51 -222 -128c-85 -90 -114 -200 -114 -303c0 -116 40 -223 139 -223c75 0 113 68 113 153s-38 167 -123 167c-20 0 -36 -5 -46 -8c-6 3 -7 10 -3 16c29 18 59 30 98 30
c96 0 159 -77 159 -179c0 -117 -86 -209 -211 -209c-146 0 -215 114 -215 250z" />
    <glyph glyph-name="seven" unicode="7" horiz-adv-x="500" 
d="M357 564h-200c-56 0 -78 -3 -107 -51c-7 -3 -17 -1 -21 8c10 27 25 70 34 108c16 -2 51 -3 106 -3h169c55 0 122 0 134 3c4 -1 7 -5 7 -9c-28 -43 -57 -96 -94 -171l-255 -513c-16 -2 -31 6 -34 19l283 572c15 30 10 37 -22 37z" />
    <glyph glyph-name="eight" unicode="8" horiz-adv-x="500" 
d="M263 640c89 0 166 -50 166 -146c0 -82 -68 -119 -118 -152c69 -39 132 -91 132 -186c0 -106 -83 -170 -200 -170c-89 0 -185 45 -185 167c0 75 69 126 135 168c-58 32 -113 80 -114 157c-1 102 82 162 184 162zM253 16c71 0 116 48 116 121c0 79 -75 134 -148 167
c-66 -45 -91 -99 -91 -142c0 -84 49 -146 123 -146zM256 610c-69 0 -105 -53 -105 -111c0 -69 68 -111 131 -142c46 33 80 78 80 135c0 61 -42 118 -106 118z" />
    <glyph glyph-name="nine" unicode="9" horiz-adv-x="500" 
d="M239 610c-64 0 -112 -49 -112 -138c0 -78 39 -168 115 -168c25 0 32 1 44 4c4 -2 5 -8 3 -12c-20 -17 -51 -29 -90 -29c-81 0 -152 65 -152 169c0 120 91 204 205 204c125 0 199 -108 199 -255c0 -109 -45 -239 -147 -330c-74 -66 -171 -103 -238 -115c-8 3 -11 18 -6 23
c60 18 110 42 148 70c92 68 154 171 154 360c0 91 -26 217 -123 217z" />
    <glyph glyph-name="colon" unicode=":" horiz-adv-x="250" 
d="M125 280c-29 0 -56 21 -56 55s24 59 56 59c34 0 56 -27 56 -59s-22 -55 -56 -55zM125 -14c-29 0 -56 21 -56 55s24 59 56 59c34 0 56 -27 56 -59s-22 -55 -56 -55z" />
    <glyph glyph-name="semicolon" unicode=";" horiz-adv-x="250" 
d="M113 122c35 0 79 -32 79 -98c0 -79 -60 -124 -130 -145c-9 3 -12 19 -6 24c31 10 82 35 82 87c0 42 -48 53 -57 58c-13 7 -17 17 -17 29c0 23 17 45 49 45zM125 280c-29 0 -56 21 -56 55s24 59 56 59c34 0 56 -27 56 -59s-22 -55 -56 -55z" />
    <glyph glyph-name="less" unicode="&#x3c;" horiz-adv-x="500" 
d="M56 228l389 185v-58l-317 -148v-2l317 -149v-57l-389 184v45z" />
    <glyph glyph-name="equal" unicode="=" horiz-adv-x="500" 
d="M443 305v-49h-385v49h385zM443 155v-49h-385v49h385z" />
    <glyph glyph-name="greater" unicode="&#x3e;" horiz-adv-x="500" 
d="M55 413l389 -185v-45l-389 -184v57l317 149v2l-317 148v58z" />
    <glyph glyph-name="question" unicode="?" horiz-adv-x="321" 
d="M104 646c80 0 172 -98 172 -204c0 -55 -23 -82 -38 -90l-79 -42c-23 -12 -35 -26 -35 -44c0 -16 5 -38 10 -58c-4 -8 -15 -10 -21 -5c-14 23 -36 69 -36 99c0 41 24 56 54 72l49 26c40 21 55 47 55 73c0 21 -5 44 -22 61c-28 28 -64 32 -116 32c-9 0 -33 16 -33 42
c0 20 14 38 40 38zM126 -14c-29 0 -56 21 -56 55s24 59 56 59c34 0 56 -27 56 -59s-22 -55 -56 -55z" />
    <glyph glyph-name="at" unicode="@" horiz-adv-x="765" 
d="M452 325c-21 0 -37 -9 -63 -30c-56 -45 -105 -147 -105 -201c0 -9 5 -13 12 -13c6 0 32 9 80 52c49 43 107 132 119 163c-5 15 -21 29 -43 29zM518 338l25 51c16 6 39 -2 48 -12c-13 -30 -101 -234 -117 -277c-9 -23 -3 -33 23 -32c106 4 195 78 195 204
c0 141 -114 230 -261 230c-198 0 -317 -164 -317 -348c0 -118 69 -275 298 -275c72 0 122 21 155 35c7 -3 11 -11 8 -19c-60 -38 -137 -51 -193 -51c-165 0 -337 98 -337 309c0 235 189 383 395 383c191 0 295 -126 295 -260c0 -128 -97 -241 -259 -241c-66 0 -72 15 -72 22
c0 5 1 13 8 31l25 63l-2 1c-60 -62 -148 -117 -189 -117c-28 0 -41 22 -41 45c0 18 17 82 76 154c48 59 120 126 200 126c13 0 32 -8 37 -22z" />
    <glyph glyph-name="A" unicode="A" horiz-adv-x="623" 
d="M451 96l-44 136c-7 22 -11 25 -41 25h-151c-25 0 -31 -3 -38 -24l-35 -105c-15 -45 -22 -72 -22 -83c0 -12 5 -18 29 -20l33 -3c7 -5 7 -21 -2 -25c-26 2 -57 2 -104 3c-33 0 -69 -2 -96 -3c-6 4 -8 20 -2 25l33 3c24 2 46 13 60 49c18 46 46 111 88 223l102 270
c14 36 20 55 17 71c24 7 41 25 52 38c6 0 13 -2 15 -9c13 -44 29 -90 44 -134l137 -402c29 -86 42 -101 85 -106l27 -3c7 -5 5 -21 0 -25c-41 2 -76 3 -121 3c-48 0 -86 -2 -115 -3c-8 4 -9 20 -2 25l29 3c21 2 35 8 35 18c0 11 -5 29 -13 53zM272 495l-63 -174
c-8 -23 -7 -24 21 -24h123c29 0 31 4 22 31l-54 163c-8 24 -17 51 -23 63h-2c-3 -5 -13 -29 -24 -59z" />
    <glyph glyph-name="B" unicode="B" horiz-adv-x="605" 
d="M128 150v380c0 74 -4 93 -49 97l-32 3c-8 6 -7 21 1 25c54 5 122 8 215 8c63 0 123 -5 168 -28c43 -21 76 -61 76 -125c0 -72 -42 -109 -102 -137c0 -10 8 -13 19 -15c54 -10 134 -60 134 -167c0 -116 -86 -194 -266 -194c-29 0 -78 3 -120 3c-44 0 -78 -2 -115 -3
c-6 3 -8 19 -2 25l18 3c53 9 55 20 55 125zM210 313v-148c0 -36 2 -87 21 -109c19 -23 49 -28 79 -28c89 0 157 40 157 140c0 79 -40 171 -199 171c-54 0 -58 -6 -58 -26zM210 600v-203c0 -28 1 -30 52 -28c102 4 157 34 157 128c0 98 -73 135 -149 135c-22 0 -37 -2 -46 -6
c-10 -3 -14 -8 -14 -26z" />
    <glyph glyph-name="C" unicode="C" horiz-adv-x="696" 
d="M44 326c0 111 50 206 126 265c73 57 166 85 270 85c54 0 130 -11 177 -24c12 -3 19 -5 28 -4c1 -23 6 -86 14 -147c-5 -7 -20 -8 -27 -2c-15 68 -60 146 -205 146c-153 0 -283 -97 -283 -304c0 -210 133 -326 297 -326c129 0 186 84 209 143c7 5 22 3 26 -4
c-7 -52 -33 -118 -48 -137c-12 -2 -24 -6 -35 -10c-22 -8 -94 -23 -158 -23c-90 0 -176 18 -249 67c-80 55 -142 146 -142 275z" />
    <glyph glyph-name="D" unicode="D" horiz-adv-x="780" 
d="M128 150v380c0 70 -5 91 -47 97l-22 3c-8 5 -9 21 1 25c85 5 166 8 251 8c84 0 155 -6 220 -30c135 -49 203 -163 203 -295c0 -127 -61 -236 -175 -298c-65 -35 -147 -48 -224 -48c-64 0 -128 8 -163 8c-42 0 -78 -1 -125 -3c-6 3 -8 19 -2 25l23 3c58 8 60 20 60 125z
M210 542v-369c0 -53 3 -85 20 -109c22 -31 60 -41 123 -41c194 0 281 127 281 313c0 110 -53 296 -315 296c-59 0 -91 -8 -99 -14s-10 -31 -10 -76z" />
    <glyph glyph-name="E" unicode="E" horiz-adv-x="584" 
d="M128 150v360c0 104 -2 119 -61 126l-16 2c-6 4 -4 22 2 25c43 -2 77 -3 118 -3h188c64 0 123 0 135 3c6 -17 12 -89 16 -133c-4 -6 -20 -8 -25 -2c-15 47 -24 82 -76 95c-21 5 -53 6 -97 6h-72c-30 0 -30 -2 -30 -40v-200c0 -28 3 -28 33 -28h58c42 0 73 2 85 6
s19 10 24 35l8 41c5 6 22 6 26 -1c0 -24 -4 -63 -4 -101c0 -36 4 -74 4 -96c-4 -7 -21 -7 -26 -1l-9 39c-4 18 -11 33 -31 38c-14 4 -38 5 -77 5h-58c-30 0 -33 -1 -33 -27v-141c0 -53 3 -87 19 -104c12 -12 33 -23 121 -23c77 0 106 4 128 15c18 10 45 45 71 97
c7 5 21 2 25 -7c-7 -35 -32 -112 -45 -139c-90 2 -179 3 -268 3h-90c-43 0 -77 -1 -136 -3c-6 3 -8 19 -2 25l33 3c57 5 62 20 62 125z" />
    <glyph glyph-name="F" unicode="F" horiz-adv-x="538" 
d="M210 589v-211c0 -27 3 -27 33 -27h68c41 0 73 2 85 6c11 4 19 9 25 35l9 40c5 6 22 6 26 0c0 -24 -4 -64 -4 -101c0 -36 4 -74 4 -97c-4 -6 -19 -6 -26 0l-10 39c-5 18 -13 32 -32 38c-14 4 -39 5 -77 5h-68c-30 0 -33 -1 -33 -27v-139c0 -105 2 -120 61 -125l34 -3
c6 -4 4 -22 -2 -25c-59 2 -93 3 -133 3c-44 0 -78 -1 -125 -3c-6 3 -8 19 -2 25l25 3c58 7 60 20 60 125v360c0 105 -2 119 -60 126l-16 2c-6 4 -4 22 2 25c42 -2 76 -3 116 -3h184c64 0 122 0 135 3c0 -46 1 -94 3 -132c-3 -6 -17 -9 -24 -3c-8 45 -20 82 -70 95
c-22 6 -55 6 -97 6h-61c-30 0 -30 -2 -30 -40z" />
    <glyph glyph-name="G" unicode="G" horiz-adv-x="747" 
d="M648 158v-56c0 -40 6 -64 24 -71c3 -3 3 -9 -1 -12c-12 0 -30 -4 -49 -9c-53 -14 -125 -26 -179 -26c-119 0 -228 33 -305 111c-60 60 -92 139 -92 227c0 85 28 171 90 237c67 70 166 117 317 117c57 0 110 -11 127 -15c19 -4 50 -11 62 -9c0 -33 6 -85 15 -145
c-3 -8 -21 -9 -27 -3c-28 108 -103 142 -205 142c-194 0 -279 -138 -279 -288c0 -192 99 -343 300 -343c62 0 99 13 110 30c5 7 10 25 10 57v40c0 84 -3 90 -65 97l-44 5c-8 4 -7 22 0 25c29 -2 84 -3 143 -3c39 0 73 1 106 3c7 -4 8 -19 1 -25l-16 -2
c-42 -5 -43 -33 -43 -84z" />
    <glyph glyph-name="H" unicode="H" horiz-adv-x="806" 
d="M546 323h-286c-48 0 -50 -2 -50 -32v-141c0 -105 5 -119 61 -125l29 -3c6 -4 4 -22 -2 -25c-54 2 -88 3 -127 3c-43 0 -77 -2 -116 -3c-6 3 -8 19 -2 25l17 3c56 10 58 20 58 125v360c0 105 -7 122 -59 126l-26 2c-6 4 -4 22 2 25c49 -1 83 -3 126 -3c39 0 73 1 116 3
c6 -3 8 -21 2 -25l-19 -2c-58 -6 -60 -21 -60 -126v-115c0 -31 2 -32 50 -32h286c48 0 50 1 50 32v115c0 105 -2 120 -61 126l-19 2c-6 4 -4 22 2 25c46 -2 80 -3 121 -3c39 0 73 1 118 3c6 -3 8 -21 2 -25l-21 -2c-58 -6 -60 -21 -60 -126v-360c0 -105 2 -118 60 -125
l24 -3c6 -4 4 -22 -2 -25c-48 2 -82 3 -121 3c-41 0 -77 -1 -121 -3c-6 3 -8 19 -2 25l19 3c61 10 61 20 61 125v141c0 30 -2 32 -50 32z" />
    <glyph glyph-name="I" unicode="I" horiz-adv-x="338" 
d="M128 152v356c0 106 -2 123 -61 128l-25 2c-6 4 -4 22 2 25c50 -2 84 -3 126 -3c40 0 74 1 124 3c6 -3 8 -21 2 -25l-25 -2c-59 -5 -61 -22 -61 -128v-356c0 -106 2 -120 61 -127l25 -3c6 -4 4 -22 -2 -25c-50 2 -84 3 -124 3c-42 0 -76 -1 -126 -3c-6 3 -8 19 -2 25l25 3
c59 7 61 21 61 127z" />
    <glyph glyph-name="J" unicode="J" horiz-adv-x="345" 
d="M143 130v378c0 111 -10 123 -69 128l-25 2c-6 4 -4 22 2 25c58 -2 92 -3 134 -3c40 0 74 1 114 3c6 -3 8 -21 2 -25l-15 -2c-59 -8 -61 -22 -61 -128v-371c0 -79 -4 -148 -23 -194c-33 -80 -104 -144 -197 -144c-12 0 -43 1 -43 21c0 17 15 46 36 46c12 0 24 -2 37 -6
c14 -4 28 -7 42 -7c21 0 33 12 40 26c23 47 26 197 26 251z" />
    <glyph glyph-name="K" unicode="K" horiz-adv-x="675" 
d="M128 150v360c0 105 -2 121 -60 126l-25 2c-6 4 -4 22 2 25c49 -2 81 -3 126 -3c39 0 73 1 116 3c6 -3 8 -21 2 -25l-19 -2c-58 -6 -60 -21 -60 -126v-115c0 -19 2 -38 13 -38c9 0 21 6 28 11c14 12 40 38 51 48l108 107c19 18 68 69 78 83c5 7 7 12 7 16s-4 7 -17 10
l-27 6c-7 7 -6 20 2 25c35 -2 75 -3 110 -3s69 1 99 3c7 -5 8 -19 2 -25c-26 -2 -65 -12 -93 -28s-84 -63 -140 -116l-90 -85c-14 -14 -23 -23 -23 -31c0 -7 6 -15 19 -31c95 -109 172 -199 250 -281c24 -24 46 -37 80 -41l27 -3c7 -5 5 -22 -2 -25c-26 2 -65 3 -112 3
c-41 0 -76 -1 -122 -3c-7 2 -10 19 -4 25l23 4c14 2 24 5 24 10c0 6 -7 14 -14 23c-19 24 -45 51 -83 94l-80 90c-57 64 -73 84 -97 84c-15 0 -17 -13 -17 -48v-129c0 -105 2 -119 58 -125l27 -3c6 -4 4 -22 -2 -25c-49 2 -83 3 -122 3c-41 0 -75 -1 -116 -3
c-6 3 -8 18 -2 25l20 3c53 8 55 20 55 125z" />
    <glyph glyph-name="L" unicode="L" horiz-adv-x="553" 
d="M128 150v360c0 105 -2 121 -65 126l-25 2c-6 4 -4 22 2 25c56 -2 90 -3 130 -3c39 0 73 1 123 3c6 -3 8 -21 2 -25l-24 -2c-59 -5 -61 -21 -61 -126v-348c0 -63 3 -89 21 -108c11 -11 30 -23 109 -23c85 0 106 4 122 13c20 12 46 48 66 99c6 5 25 1 25 -6
c0 -11 -28 -113 -42 -140c-51 2 -146 3 -249 3h-92c-42 0 -74 -1 -130 -3c-6 3 -8 19 -2 25l30 3c58 6 60 20 60 125z" />
    <glyph glyph-name="M" unicode="M" horiz-adv-x="912" 
d="M275 498l114 -231c23 -47 45 -93 69 -137h2c27 47 52 99 77 150l94 191c45 91 74 146 76 192c34 -3 55 -3 75 -3c25 0 58 1 89 3c6 -4 6 -21 1 -25l-21 -2c-63 -6 -71 -25 -70 -95c2 -106 3 -291 11 -435c3 -50 2 -77 49 -81l32 -3c6 -6 5 -21 -2 -25c-41 2 -82 3 -118 3
c-35 0 -80 -1 -121 -3c-7 5 -8 19 -2 25l29 3c49 5 49 21 49 85l-3 417h-2c-7 -11 -45 -91 -65 -130l-89 -175c-45 -88 -90 -182 -108 -228c-2 -3 -6 -4 -10 -4c-2 0 -7 1 -9 4c-17 53 -65 151 -88 200l-90 193c-21 46 -42 98 -64 144h-2c-4 -62 -7 -120 -10 -178
c-3 -61 -7 -150 -7 -235c0 -74 6 -90 45 -93l38 -3c7 -6 6 -22 -1 -25c-34 2 -73 3 -111 3c-32 0 -68 -1 -102 -3c-6 5 -8 20 -2 25l22 3c42 6 56 12 62 82c6 66 11 121 17 220c5 83 9 168 11 223c2 63 -6 78 -67 86l-16 2c-5 6 -4 21 4 25c30 -2 54 -3 79 -3
c23 0 50 0 83 3c-4 -39 21 -101 52 -165z" />
    <glyph glyph-name="N" unicode="N" horiz-adv-x="783" 
d="M666 409v-239c0 -30 0 -149 3 -175c-2 -6 -8 -11 -19 -11c-12 17 -41 52 -128 151l-232 264c-27 31 -95 113 -116 135h-2c-4 -12 -5 -35 -5 -65v-218c0 -47 1 -177 18 -207c6 -11 26 -17 51 -19l31 -3c6 -8 5 -20 -2 -25c-45 2 -80 3 -117 3c-42 0 -69 -1 -104 -3
c-7 5 -8 19 -2 25l27 3c23 3 39 9 44 20c14 36 13 158 13 206v289c0 28 -1 49 -22 72c-14 14 -38 21 -62 24l-17 2c-6 6 -6 21 2 25c42 -3 95 -3 113 -3c16 0 33 1 46 3c20 -51 138 -183 171 -220l97 -109c69 -77 118 -133 165 -181h2c4 5 4 21 4 42v214
c0 47 -1 177 -20 207c-6 9 -22 15 -62 20l-17 2c-7 6 -6 22 2 25c46 -2 80 -3 118 -3c43 0 69 1 103 3c8 -5 8 -19 2 -25l-14 -2c-32 -5 -52 -13 -56 -21c-17 -36 -15 -160 -15 -206z" />
    <glyph glyph-name="O" unicode="O" horiz-adv-x="795" 
d="M402 -16c-222 0 -356 159 -356 339c0 200 150 353 356 353c231 0 347 -167 347 -343c0 -202 -154 -349 -347 -349zM415 15c120 0 234 90 234 287c0 165 -73 343 -264 343c-104 0 -239 -71 -239 -290c0 -148 72 -340 269 -340z" />
    <glyph glyph-name="P" unicode="P" horiz-adv-x="549" 
d="M210 596v-446c0 -105 2 -118 66 -125l27 -3c6 -5 4 -22 -2 -25c-57 2 -90 3 -130 3c-42 0 -78 -1 -122 -3c-6 3 -8 19 -2 25l21 3c58 8 60 20 60 125v369c0 85 -2 102 -47 107l-36 4c-7 6 -6 21 2 25c53 7 115 8 198 8s145 -11 192 -40c46 -29 80 -81 80 -150
c0 -92 -57 -138 -100 -159c-44 -21 -97 -30 -138 -30c-7 3 -7 18 -1 20c108 20 147 81 147 168c0 97 -57 160 -161 160c-53 0 -54 -4 -54 -36z" />
    <glyph glyph-name="Q" unicode="Q" horiz-adv-x="795" 
d="M402 676c231 0 347 -167 347 -343c0 -165 -102 -292 -242 -334c-2 -5 2 -9 8 -15c51 -49 143 -131 223 -157c37 -12 70 -14 93 -14c10 0 34 3 48 9c6 -1 8 -10 5 -15c-32 -18 -77 -26 -112 -26c-46 0 -103 10 -162 37c-82 38 -148 96 -185 132c-30 30 -39 32 -67 37
c-26 4 -62 10 -98 24c-133 50 -214 169 -214 312c0 200 150 353 356 353zM415 15c120 0 234 90 234 287c0 165 -73 343 -264 343c-104 0 -239 -71 -239 -290c0 -148 72 -340 269 -340z" />
    <glyph glyph-name="R" unicode="R" horiz-adv-x="645" 
d="M128 150v359c0 95 -3 112 -44 117l-32 4c-7 5 -7 21 1 25c56 5 125 8 223 8c62 0 121 -5 167 -30c48 -25 83 -70 83 -140c0 -95 -75 -147 -125 -167c-5 -6 0 -16 5 -24c80 -129 133 -209 201 -266c17 -15 42 -26 69 -28c5 -2 6 -10 1 -14c-9 -3 -25 -5 -44 -5
c-85 0 -136 25 -207 126c-26 37 -67 106 -98 151c-15 22 -31 32 -71 32c-45 0 -47 -1 -47 -22v-126c0 -105 2 -117 60 -125l21 -3c6 -5 4 -22 -2 -25c-45 2 -79 3 -119 3c-42 0 -78 -1 -125 -3c-6 3 -8 18 -2 25l25 3c58 7 60 20 60 125zM210 600v-234c0 -18 0 -29 3 -33
c3 -3 18 -5 69 -5c36 0 74 4 103 26c27 21 50 56 50 124c0 79 -49 154 -160 154c-62 0 -65 -4 -65 -32z" />
    <glyph glyph-name="S" unicode="S" horiz-adv-x="489" 
d="M437 169c0 -110 -83 -185 -213 -185c-84 0 -137 26 -156 37c-12 22 -25 93 -27 140c5 7 20 9 24 3c15 -51 56 -149 172 -149c84 0 125 55 125 115c0 44 -9 93 -82 140l-95 62c-50 33 -108 90 -108 172c0 95 74 172 204 172c31 0 67 -6 93 -13c13 -4 27 -6 35 -6
c9 -24 18 -80 18 -122c-4 -6 -20 -9 -25 -3c-13 48 -40 113 -136 113c-98 0 -119 -65 -119 -111c0 -58 48 -100 85 -123l80 -50c63 -39 125 -97 125 -192z" />
    <glyph glyph-name="T" unicode="T" horiz-adv-x="660" 
d="M368 595v-445c0 -105 2 -120 60 -125l32 -3c6 -4 4 -22 -2 -25c-57 2 -91 3 -131 3s-75 -1 -139 -3c-6 3 -8 20 0 25l36 3c57 5 62 20 62 125v447c0 31 0 32 -30 32h-55c-43 0 -98 -2 -123 -25c-24 -22 -34 -44 -45 -69c-8 -6 -22 -1 -26 7c16 45 31 109 38 149
c3 2 16 3 19 0c6 -32 39 -31 85 -31h405c54 0 63 2 78 28c5 2 16 1 18 -3c-11 -41 -18 -122 -15 -152c-4 -8 -21 -8 -26 -2c-3 25 -10 62 -25 73c-23 17 -61 25 -116 25h-71c-30 0 -29 -1 -29 -34z" />
    <glyph glyph-name="U" unicode="U" horiz-adv-x="746" 
d="M605 294v115c0 62 -2 177 -19 207c-7 12 -25 19 -50 21l-25 2c-6 7 -4 20 2 24c38 -2 75 -3 114 -3c42 0 69 1 105 3c8 -5 7 -18 2 -24l-24 -2c-25 -2 -44 -11 -50 -24c-14 -33 -14 -148 -14 -204v-113c0 -87 -14 -179 -70 -239c-43 -47 -117 -73 -191 -73
c-69 0 -138 13 -187 55c-53 44 -78 117 -78 236v236c0 104 -2 121 -60 126l-25 2c-6 4 -4 21 2 24c50 -2 84 -3 124 -3c41 0 74 1 123 3c6 -3 8 -20 2 -24l-24 -2c-58 -5 -60 -22 -60 -126v-216c0 -161 50 -267 203 -267c145 0 200 114 200 266z" />
    <glyph glyph-name="V" unicode="V" horiz-adv-x="676" 
d="M276 120l-176 434c-23 56 -38 77 -81 82l-18 2c-7 6 -6 20 2 25c29 -2 61 -3 104 -3c44 0 79 1 121 3c7 -4 9 -19 2 -25l-15 -2c-38 -5 -46 -11 -47 -19c2 -10 19 -64 50 -140c46 -116 92 -231 142 -345c31 66 73 169 96 222c29 68 76 181 93 224c8 21 9 32 9 39
s-10 15 -45 19l-18 2c-7 6 -5 21 2 25c28 -2 66 -3 104 -3c33 0 64 1 97 3c7 -4 7 -20 2 -25l-30 -2c-24 -2 -39 -14 -52 -35c-28 -47 -67 -128 -112 -230l-54 -123c-40 -92 -87 -208 -104 -261c-3 -2 -7 -3 -11 -3c-5 0 -10 1 -15 3c-11 42 -29 91 -46 133z" />
    <glyph glyph-name="W" unicode="W" horiz-adv-x="960" 
d="M21 637l-24 2c-6 6 -5 20 3 24c27 -2 72 -3 103 -3c28 0 79 1 114 3c9 -3 8 -17 2 -24l-23 -2c-21 -2 -33 -8 -33 -17c0 -12 21 -63 52 -134c56 -125 115 -250 173 -373c24 50 51 106 77 162c9 19 16 36 16 41s-3 14 -8 26c-35 80 -72 160 -110 240c-15 31 -30 52 -64 55
l-24 2c-7 8 -6 20 2 24c29 -2 67 -3 107 -3c50 0 87 1 110 3c7 -3 8 -16 2 -24l-26 -2c-39 -3 -40 -10 -21 -55c21 -49 49 -112 77 -174c19 39 37 77 59 131c36 85 31 96 -1 98l-30 2c-7 10 -5 21 2 24c27 -2 57 -3 94 -3c33 0 73 1 96 3c7 -3 8 -16 2 -24l-29 -2
c-42 -3 -60 -48 -82 -89c-21 -37 -63 -124 -78 -159c-5 -10 -9 -20 -9 -24s2 -12 7 -24c34 -77 69 -152 102 -228c31 70 61 140 90 211c20 48 73 181 80 199c13 36 30 79 30 91c0 14 -12 22 -33 23l-29 2c-8 9 -7 20 1 24c38 -2 65 -3 96 -3c38 0 67 1 93 3
c8 -3 9 -16 2 -24l-19 -2c-50 -5 -59 -35 -119 -174l-73 -169c-44 -102 -84 -200 -125 -307c-3 -2 -7 -3 -12 -3s-10 1 -14 3c-32 89 -90 214 -121 284c-36 -73 -96 -201 -125 -284c-3 -2 -7 -3 -12 -3s-10 1 -15 3c-17 42 -56 132 -69 161c-64 139 -126 278 -191 417
c-19 41 -31 68 -73 72z" />
    <glyph glyph-name="X" unicode="X" horiz-adv-x="643" 
d="M631 25l35 -3c7 -6 6 -20 -1 -25c-46 2 -85 3 -126 3c-45 0 -93 -1 -129 -3c-6 6 -7 19 -2 25l29 3c23 2 34 6 34 13c0 6 -2 16 -22 44c-43 61 -99 144 -143 201c-27 -34 -101 -143 -141 -213c-8 -14 -13 -25 -13 -32c0 -6 9 -11 29 -13l27 -3c7 -6 5 -20 -1 -25
c-36 2 -74 3 -108 3s-71 -1 -103 -3c-9 4 -10 19 -3 25l25 3c54 6 89 49 119 89c12 16 81 104 136 184c7 10 9 17 9 20s-4 12 -12 23l-150 215c-33 47 -52 67 -87 75l-32 7c-5 6 -4 22 2 25c47 -2 80 -3 116 -3c39 0 84 1 113 3c7 -3 8 -18 2 -25l-28 -2
c-18 -1 -30 -7 -30 -13c0 -9 10 -26 30 -55c33 -48 92 -138 128 -183c26 32 116 174 134 204c8 13 14 26 14 33c0 5 -15 11 -33 13l-26 3c-6 7 -6 21 2 25c35 -2 67 -3 106 -3c37 0 65 1 96 3c7 -5 8 -19 2 -25l-24 -2c-30 -3 -66 -33 -107 -85c-39 -50 -82 -110 -130 -177
c-6 -9 -10 -16 -10 -19s1 -10 13 -26l169 -238c34 -47 60 -63 91 -66z" />
    <glyph glyph-name="Y" unicode="Y" horiz-adv-x="574" 
d="M336 204v-52c0 -107 6 -123 60 -127l38 -3c6 -6 4 -22 -2 -25c-62 2 -96 3 -136 3c-42 0 -78 -1 -131 -3c-6 3 -8 19 -2 25l31 3c58 6 60 20 60 127v51c0 55 -3 68 -32 124l-118 230c-34 66 -49 71 -79 76l-28 5c-6 7 -5 21 2 25c32 -2 68 -3 116 -3c46 0 82 1 107 3
c9 -3 9 -19 3 -25l-13 -2c-35 -5 -42 -10 -42 -18c0 -10 26 -67 31 -77c37 -74 74 -153 113 -222c31 53 64 111 94 169c28 52 65 120 65 132c0 6 -18 13 -42 16l-18 2c-7 7 -6 21 2 25c36 -2 65 -3 96 -3s59 1 93 3c8 -5 9 -19 2 -25l-28 -5c-52 -9 -82 -72 -132 -158
l-63 -109c-44 -76 -47 -85 -47 -162z" />
    <glyph glyph-name="Z" unicode="Z" horiz-adv-x="641" 
d="M136 145l216 307c52 74 81 112 97 142c7 12 12 20 12 27c0 5 -10 8 -36 8h-149c-80 0 -125 -7 -149 -33c-21 -23 -36 -51 -44 -68c-9 -4 -21 -1 -25 7c12 35 29 95 41 150c4 3 12 3 17 0c3 -24 18 -25 99 -25h264c72 0 104 1 115 3c4 -1 6 -5 6 -9
c-27 -23 -112 -139 -164 -214l-165 -238c-11 -16 -99 -140 -99 -155c0 -10 10 -12 28 -14c26 -2 78 -2 148 -2c64 0 147 2 185 23c29 16 53 53 70 92c9 3 22 2 25 -7c-9 -46 -29 -117 -45 -142c-55 2 -112 3 -182 3h-257c-53 0 -89 -2 -112 -3c-4 2 -5 7 -5 12
c21 20 78 91 109 136z" />
    <glyph glyph-name="bracketleft" unicode="[" horiz-adv-x="320" 
d="M117 -150v836h69c37 0 73 -2 110 -3c7 -4 7 -15 1 -22l-89 -10c-13 -1 -19 -4 -25 -10c-11 -11 -13 -82 -13 -156v-434c0 -74 2 -145 13 -156c6 -6 12 -9 25 -10l89 -10c6 -7 6 -18 -1 -22c-37 -1 -73 -3 -110 -3h-69z" />
    <glyph glyph-name="backslash" unicode="\" horiz-adv-x="309" 
d="M88 686l191 -702h-58l-191 702h58z" />
    <glyph glyph-name="bracketright" unicode="]" horiz-adv-x="320" 
d="M203 686v-836h-69c-37 0 -73 2 -110 3c-7 4 -7 15 -1 22l89 10c13 1 19 4 25 10c11 11 13 82 13 156v434c0 74 -2 145 -13 156c-6 6 -12 9 -25 10l-89 10c-6 7 -6 18 1 22c37 1 73 3 110 3h69z" />
    <glyph glyph-name="asciicircum" unicode="^" horiz-adv-x="500" 
d="M450 244h-62l-138 311l-138 -311h-63l177 382h48z" />
    <glyph glyph-name="underscore" unicode="_" horiz-adv-x="500" 
d="M500 -75v-50h-500v50h500z" />
    <glyph glyph-name="quoteleft" unicode="&#x2018;" horiz-adv-x="235" 
d="M132 473c-41 0 -77 44 -77 96c0 69 54 117 117 136c8 -4 12 -14 7 -21c-37 -17 -76 -45 -76 -86c0 -38 31 -55 50 -56c14 -1 27 -9 27 -28c0 -15 -9 -41 -48 -41z" />
    <glyph glyph-name="a" unicode="a" horiz-adv-x="404" 
d="M118 164l119 43c15 5 17 14 17 29l1 46c1 37 -11 87 -73 87c-28 0 -62 -14 -64 -45c-1 -16 -2 -28 -10 -34c-15 -12 -42 -19 -57 -19c-9 0 -14 5 -14 14c0 52 113 123 186 123c72 0 107 -42 104 -117l-6 -174c-2 -46 7 -87 46 -87c10 0 19 3 25 6c5 3 10 7 13 7
c4 0 7 -6 7 -13c0 -5 -35 -44 -84 -44c-24 0 -48 9 -65 31c-4 6 -10 14 -16 14c-7 0 -19 -9 -39 -20c-22 -12 -44 -25 -72 -25c-29 0 -53 8 -70 23c-19 17 -31 42 -31 70c0 39 19 62 83 85zM112 91c0 -17 12 -60 63 -60c20 0 51 15 61 25c12 12 12 26 13 47l2 59
c0 11 -4 13 -10 13s-23 -4 -41 -10c-59 -20 -88 -35 -88 -74z" />
    <glyph glyph-name="b" unicode="b" horiz-adv-x="500" 
d="M75 87v477c0 59 -1 65 -31 83l-10 6c-5 3 -5 17 0 20c23 9 71 22 109 42c4 0 8 -2 10 -6c-2 -35 -4 -80 -4 -124v-189c0 -17 4 -21 10 -21c26 15 66 33 115 33c114 0 191 -86 191 -196c0 -133 -96 -226 -230 -226c-37 0 -65 7 -85 13c-21 7 -34 13 -42 13s-16 -8 -21 -15
c-1 -1 -2 -1 -4 -1c-4 0 -8 2 -10 6c1 14 2 33 2 85zM149 292v-156c0 -35 8 -66 25 -87s44 -33 76 -33c94 0 131 80 131 166c0 103 -53 183 -152 183c-30 0 -54 -7 -68 -16c-10 -7 -12 -18 -12 -57z" />
    <glyph glyph-name="c" unicode="c" horiz-adv-x="400" 
d="M278 408c23 0 62 -5 89 -17c8 -7 15 -23 15 -40c0 -18 -10 -37 -22 -37c-5 0 -10 2 -14 7c-22 27 -59 53 -100 53c-70 0 -138 -55 -138 -161c0 -78 54 -171 161 -171c58 0 88 26 111 60c8 2 17 -5 18 -14c-34 -74 -109 -102 -167 -102c-53 0 -102 17 -137 51
s-58 83 -58 148c0 108 76 223 242 223z" />
    <glyph glyph-name="d" unicode="d" horiz-adv-x="509" 
d="M424 585v-439c0 -79 1 -116 29 -116c11 0 28 5 43 10c7 -2 8 -27 -1 -32c-42 -6 -104 -21 -132 -32c-6 0 -11 3 -11 8v17c0 15 0 27 -2 31h-4c-44 -30 -78 -46 -126 -46c-111 0 -185 87 -185 192c0 140 106 230 242 230c34 0 56 -5 67 -9c5 0 6 6 6 14v151
c0 59 -1 65 -31 83l-10 6c-5 3 -5 17 0 20c25 8 72 23 108 42c4 0 8 -2 10 -6c-1 -30 -3 -80 -3 -124zM350 99v197c0 20 -4 29 -11 39c-15 21 -45 42 -84 42c-91 0 -138 -79 -138 -166c0 -91 51 -177 149 -177c27 0 61 12 77 28c6 6 7 21 7 37z" />
    <glyph glyph-name="e" unicode="e" horiz-adv-x="396" 
d="M315 256h-185c-26 0 -27 -2 -27 -27c0 -101 59 -187 166 -187c33 0 61 10 92 49c10 3 17 -3 18 -12c-33 -68 -105 -93 -157 -93c-65 0 -116 28 -145 66c-30 39 -42 86 -42 130c0 123 81 226 201 226c86 0 142 -59 142 -119c0 -14 -2 -22 -4 -26c-3 -6 -17 -7 -59 -7z
M121 286h71c74 0 96 4 104 10c3 2 6 6 6 19c0 28 -19 63 -77 63c-59 0 -110 -54 -111 -87c0 -2 0 -5 7 -5z" />
    <glyph glyph-name="f" unicode="f" horiz-adv-x="290" 
d="M293 352h-107c-17 0 -17 -2 -17 -29v-211c0 -72 2 -84 38 -87l36 -3c7 -5 5 -22 -2 -25c-45 2 -74 3 -109 3c-36 0 -66 -1 -96 -3c-7 3 -9 20 -2 25l23 3c37 5 38 15 38 87v211c0 27 0 29 -20 29h-35c-6 4 -7 13 -3 19l43 21c8 4 15 10 15 20c0 58 7 120 31 176
c25 57 81 127 180 127c53 0 98 -24 98 -60c0 -20 -19 -36 -38 -36c-11 0 -17 4 -24 12c-19 22 -47 44 -80 44c-31 0 -56 -19 -71 -55c-18 -46 -22 -119 -22 -169v-29c0 -27 0 -28 17 -28h114c11 -10 4 -38 -7 -42z" />
    <glyph glyph-name="g" unicode="g" horiz-adv-x="446" 
d="M365 372h81c11 -5 9 -39 -6 -41h-72c2 -17 2 -34 2 -51c0 -69 -41 -159 -168 -159c-18 0 -32 2 -44 3c-12 -7 -44 -26 -44 -55c0 -23 23 -42 70 -42c34 0 75 3 119 3c56 0 140 -10 140 -110c0 -109 -119 -189 -249 -189c-123 0 -166 66 -166 116c0 16 4 29 11 37
c17 18 45 44 68 67c9 9 17 18 8 24c-39 10 -73 44 -73 79c0 5 4 9 15 17c17 11 36 28 53 46c5 6 10 14 10 19c-34 18 -75 57 -75 121c0 86 74 151 163 151c38 0 73 -10 96 -20c32 -14 39 -16 61 -16zM271 -32h-34c-32 0 -72 -2 -86 -11c-24 -15 -48 -46 -48 -84
c0 -54 43 -99 134 -99c89 0 148 50 148 107c0 61 -42 87 -114 87zM217 150c54 0 82 43 82 104c0 68 -28 125 -89 125c-48 0 -84 -44 -84 -112c0 -71 43 -117 91 -117z" />
    <glyph glyph-name="h" unicode="h" horiz-adv-x="515" 
d="M88 112v452c0 59 -1 65 -31 83l-10 6c-5 3 -5 17 0 20c25 8 72 23 108 42c4 0 8 -2 10 -6c-1 -30 -3 -80 -3 -124v-210c0 -9 1 -17 4 -19c36 28 84 52 135 52c95 0 129 -59 129 -129v-167c0 -72 2 -83 38 -87l27 -3c7 -5 5 -22 -2 -25c-36 2 -65 3 -100 3
c-36 0 -66 -1 -93 -3c-7 3 -9 20 -2 25l20 3c37 6 38 15 38 87v143c0 64 -31 107 -95 107c-34 0 -60 -12 -78 -27s-21 -20 -21 -55v-168c0 -72 2 -82 38 -87l21 -3c7 -4 5 -22 -2 -25c-30 2 -59 3 -94 3c-36 0 -66 -1 -98 -3c-7 3 -9 20 -2 25l25 3c37 4 38 15 38 87z" />
    <glyph glyph-name="i" unicode="i" horiz-adv-x="257" 
d="M98 112v175c0 39 0 44 -27 62l-9 6c-4 4 -4 15 1 18c23 8 80 34 103 49c5 0 9 -2 10 -6c-2 -35 -4 -83 -4 -124v-180c0 -72 2 -82 38 -87l21 -3c7 -5 5 -22 -2 -25c-30 2 -59 3 -94 3c-36 0 -66 -1 -94 -3c-7 3 -9 20 -2 25l21 3c37 5 38 15 38 87zM131 624
c30 0 50 -24 50 -52c0 -36 -25 -52 -53 -52c-31 0 -51 23 -51 50c0 33 24 54 54 54z" />
    <glyph glyph-name="j" unicode="j" horiz-adv-x="253" 
d="M100 35v252c0 39 0 44 -27 62l-9 6c-4 4 -4 15 1 18c23 8 80 34 103 49c5 0 9 -2 10 -6c-2 -35 -4 -83 -4 -124v-242c0 -72 -7 -122 -21 -156c-30 -72 -83 -120 -152 -163c-12 2 -18 13 -14 23c26 13 45 29 59 45c36 42 54 114 54 236zM133 624c30 0 50 -24 50 -52
c0 -35 -25 -52 -53 -52c-31 0 -51 23 -51 51c0 33 24 53 54 53z" />
    <glyph glyph-name="k" unicode="k" horiz-adv-x="482" 
d="M88 112v452c0 59 -1 65 -31 83l-10 6c-5 3 -5 17 0 20c25 8 72 23 108 42c4 0 8 -2 10 -6c-1 -30 -3 -80 -3 -124v-343c0 -13 1 -15 18 -15c22 0 41 11 68 39l41 44c28 30 35 41 35 46s-5 8 -22 10l-24 3c-9 3 -9 22 0 25h23c44 0 103 2 159 8c7 -3 8 -20 2 -25l-32 -6
c-20 -4 -37 -14 -63 -35c-39 -31 -73 -67 -91 -84c-12 -11 -13 -16 -7 -24c17 -23 33 -42 67 -80c39 -44 74 -83 94 -102c14 -13 34 -19 52 -22l14 -2c7 -5 6 -22 -2 -25c-29 2 -63 3 -95 3c-40 0 -75 -1 -104 -3c-8 4 -9 21 -2 25l18 3c15 2 25 4 25 10s-4 13 -17 28
l-107 124c-9 10 -20 14 -31 14c-18 0 -19 -3 -19 -34v-55c0 -72 2 -82 38 -87l24 -3c7 -5 5 -22 -2 -25c-33 2 -62 3 -97 3c-36 0 -66 -1 -96 -3c-7 3 -9 20 -1 25l22 3c37 5 38 15 38 87z" />
    <glyph glyph-name="l" unicode="l" horiz-adv-x="247" 
d="M162 585v-473c0 -72 2 -82 38 -87l24 -3c7 -5 5 -22 -2 -25c-33 2 -62 3 -97 3c-36 0 -66 -1 -96 -3c-7 3 -9 20 -2 25l23 3c37 5 38 15 38 87v452c0 59 -1 65 -31 83l-10 6c-5 3 -5 17 0 20c25 8 72 23 108 42c4 0 8 -2 10 -6c-1 -30 -3 -80 -3 -124z" />
    <glyph glyph-name="m" unicode="m" horiz-adv-x="787" 
d="M628 112v145c0 68 -30 103 -93 103c-38 0 -69 -17 -83 -35c-12 -15 -15 -25 -15 -60v-153c0 -72 2 -82 38 -87l21 -3c7 -5 5 -22 -2 -25c-30 2 -59 3 -94 3c-36 0 -63 -1 -91 -3c-7 3 -9 20 -2 25l18 3c37 6 38 15 38 87v145c0 67 -30 103 -92 103c-41 0 -69 -18 -84 -36
c-10 -12 -15 -25 -15 -57v-155c0 -72 2 -81 38 -87l18 -3c7 -5 5 -22 -2 -25c-27 2 -56 3 -91 3c-36 0 -66 -1 -97 -3c-7 3 -9 20 -2 25l24 3c37 5 38 15 38 87v175c0 39 0 44 -27 62l-9 6c-4 4 -4 15 1 18c23 8 80 34 100 49c4 0 9 -2 11 -7c-2 -23 -2 -38 -2 -47
c0 -6 4 -11 11 -11c38 27 85 51 133 51c50 0 78 -18 106 -59c9 -2 16 2 25 8c40 28 89 51 136 51c80 0 119 -55 119 -124v-172c0 -72 2 -82 38 -87l24 -3c7 -5 5 -22 -2 -25c-33 2 -62 3 -97 3c-36 0 -63 -1 -91 -3c-7 3 -9 20 -2 25l18 3c37 6 38 15 38 87z" />
    <glyph glyph-name="n" unicode="n" horiz-adv-x="525" 
d="M98 112v175c0 39 0 44 -27 62l-9 6c-4 4 -4 15 1 18c23 8 80 34 100 49c4 0 9 -2 11 -7c-2 -23 -2 -38 -2 -47c0 -6 4 -11 11 -11c42 26 89 51 140 51c83 0 117 -57 117 -124v-172c0 -72 2 -82 38 -87l22 -3c7 -5 5 -22 -2 -25c-30 2 -59 3 -94 3c-36 0 -66 -1 -93 -3
c-7 3 -9 20 -2 25l19 3c37 6 38 15 38 87v149c0 57 -26 99 -94 99c-38 0 -71 -16 -85 -35c-13 -17 -15 -31 -15 -60v-153c0 -72 2 -81 38 -87l18 -3c7 -5 5 -22 -2 -25c-27 2 -56 3 -91 3c-36 0 -66 -1 -94 -3c-7 3 -9 20 -2 25l21 3c37 5 38 15 38 87z" />
    <glyph glyph-name="o" unicode="o" horiz-adv-x="486" 
d="M248 408c112 0 203 -84 203 -207c0 -125 -86 -215 -211 -215c-115 0 -205 81 -205 206c0 126 95 216 213 216zM365 185c0 85 -34 193 -129 193c-66 0 -115 -63 -115 -173c0 -91 41 -189 129 -189s115 92 115 169z" />
    <glyph glyph-name="p" unicode="p" horiz-adv-x="507" 
d="M85 -143v430c0 39 0 44 -27 62l-9 6c-4 4 -4 15 1 18c26 11 73 35 99 54c6 0 10 -2 12 -7c-2 -18 -4 -33 -4 -46c0 -7 2 -13 9 -13c13 6 76 47 140 47c101 0 166 -82 166 -183c0 -139 -102 -239 -244 -239c-18 0 -46 2 -55 4c-9 -2 -14 -7 -14 -28v-105
c0 -71 2 -80 38 -85l39 -5c7 -5 5 -22 -2 -25c-48 2 -77 3 -112 3c-36 0 -66 -1 -94 -3c-7 3 -9 20 -2 25l21 3c37 5 38 15 38 87zM159 273v-172c0 -32 10 -44 30 -60c20 -15 51 -22 72 -22c82 0 130 76 130 180c0 80 -45 161 -135 161c-43 0 -74 -16 -85 -28
c-9 -11 -12 -26 -12 -59z" />
    <glyph glyph-name="q" unicode="q" horiz-adv-x="497" 
d="M423 278v-421c0 -72 3 -79 38 -85l29 -5c7 -5 5 -22 -2 -25c-38 2 -67 3 -102 3c-36 0 -66 -1 -104 -3c-7 3 -9 20 -2 25l31 3c37 4 38 15 38 87v130c0 19 -1 24 -9 24c-26 -15 -63 -25 -102 -25c-149 0 -203 118 -203 196c0 145 111 226 240 226c33 0 69 -6 83 -10
c15 -4 26 -7 35 -7c8 0 16 7 27 17c5 0 9 -4 11 -9c-6 -24 -8 -58 -8 -121zM349 82v149c0 52 -5 85 -13 100c-14 25 -43 46 -86 46c-76 0 -131 -69 -131 -163c0 -110 64 -188 158 -188c44 0 60 10 65 16s7 18 7 40z" />
    <glyph glyph-name="r" unicode="r" horiz-adv-x="332" 
d="M98 112v175c0 39 0 44 -27 62l-9 6c-4 4 -4 15 1 18c23 8 76 34 101 49c5 -1 8 -3 8 -7v-58c0 -5 1 -8 3 -9c35 29 73 60 110 60c25 0 45 -16 45 -40c0 -33 -27 -46 -43 -46c-10 0 -15 3 -22 7c-15 10 -30 16 -44 16c-16 0 -28 -9 -36 -20c-10 -14 -13 -43 -13 -77v-136
c0 -72 2 -84 40 -87l36 -3c7 -5 5 -22 -2 -25c-47 2 -76 3 -111 3c-36 0 -66 -1 -92 -3c-7 3 -9 20 -2 25l19 3c37 6 38 15 38 87z" />
    <glyph glyph-name="s" unicode="s" horiz-adv-x="323" 
d="M186 408c42 0 79 -10 88 -18c9 -22 16 -54 16 -81c-4 -7 -19 -9 -24 -3c-17 44 -47 73 -88 73c-39 0 -64 -25 -64 -61c0 -41 42 -63 77 -83c53 -30 102 -64 102 -135c0 -76 -70 -114 -144 -114c-47 0 -82 10 -107 30c-8 19 -14 68 -12 101c5 6 18 7 23 1
c17 -55 49 -103 106 -103c36 0 67 21 67 64c0 46 -40 71 -77 92c-58 33 -99 68 -99 123c0 73 60 114 136 114z" />
    <glyph glyph-name="t" unicode="t" horiz-adv-x="307" 
d="M293 352h-113c-17 0 -18 -3 -18 -24v-187c0 -58 7 -111 73 -111c10 0 19 2 27 5c9 3 22 14 25 14c8 0 12 -11 10 -17c-18 -21 -54 -46 -105 -46c-86 0 -104 48 -104 108v229c0 27 -1 29 -21 29h-28c-6 4 -7 15 -3 21c29 9 54 22 64 31c13 12 32 39 42 59c5 2 17 2 21 -5
v-45c0 -18 1 -19 18 -19h111c12 -9 10 -36 1 -42z" />
    <glyph glyph-name="u" unicode="u" horiz-adv-x="512" 
d="M159 314v-167c0 -69 17 -115 93 -115c27 0 59 11 81 30c13 12 20 27 20 58v164c0 65 -7 67 -37 79l-13 5c-7 4 -7 18 1 22c40 1 95 8 117 18c5 -1 8 -3 9 -7c-2 -19 -3 -50 -3 -87v-168c0 -79 3 -109 31 -109c12 0 25 2 39 5c6 -5 7 -25 -1 -29c-39 -8 -97 -18 -131 -37
c-5 0 -10 3 -12 7v41c0 9 -3 14 -9 14c-30 -19 -79 -52 -138 -52c-88 0 -121 44 -121 125v167c0 63 0 72 -30 85l-12 5c-6 5 -5 19 2 22c46 1 85 10 107 18c6 -1 9 -3 10 -7c-2 -17 -3 -38 -3 -87z" />
    <glyph glyph-name="v" unicode="v" horiz-adv-x="432" 
d="M166 92l-84 203c-15 37 -24 69 -60 74l-20 3c-6 8 -5 22 3 25c25 -2 60 -3 94 -3c27 0 47 1 81 3c7 -4 8 -20 1 -25l-12 -2c-31 -5 -32 -10 -22 -40c23 -69 52 -139 75 -191c9 -20 13 -29 16 -32c4 3 11 17 19 38c13 34 47 121 57 147c14 35 18 56 18 62
c0 9 -6 13 -18 15l-23 3c-6 7 -5 21 2 25c31 -2 56 -3 75 -3c25 0 42 1 70 3c7 -4 8 -19 2 -25l-15 -2c-35 -5 -44 -31 -73 -87c-14 -27 -76 -172 -92 -213c-10 -25 -20 -48 -33 -82c-2 -3 -6 -4 -10 -4c-5 0 -10 1 -13 4c-8 28 -23 67 -38 104z" />
    <glyph glyph-name="w" unicode="w" horiz-adv-x="660" 
d="M167 71l-92 226c-23 56 -35 66 -60 72l-16 4c-5 5 -6 20 3 24c31 -2 59 -3 89 -3c31 0 60 1 87 3c8 -4 9 -19 2 -24l-23 -4c-14 -2 -22 -8 -22 -14s5 -25 16 -52l62 -153c9 -23 18 -41 18 -43c3 2 11 19 23 48l49 121c13 32 14 45 9 58c-9 22 -24 30 -46 35l-16 4
c-7 6 -5 21 3 24c25 -2 57 -3 83 -3c31 0 61 1 95 3c9 -3 9 -19 3 -24l-21 -4c-40 -8 -38 -11 -26 -46c11 -33 65 -160 76 -187c6 -15 10 -26 13 -28c2 2 7 12 14 28c13 29 53 135 68 177c8 23 10 36 10 43c0 6 -6 11 -18 13l-25 4c-8 5 -6 21 1 24c29 -2 54 -3 79 -3
c19 0 43 1 65 3c8 -4 9 -19 3 -24l-20 -4c-24 -5 -33 -19 -54 -63c-27 -56 -75 -176 -94 -227c-14 -36 -26 -65 -34 -91c-4 -3 -8 -4 -13 -4c-4 0 -8 1 -11 4c-6 18 -24 70 -41 110l-48 115c-7 18 -22 51 -23 51s-15 -31 -22 -49l-52 -125c-18 -43 -32 -79 -40 -102
c-3 -3 -7 -4 -12 -4c-4 0 -9 1 -12 4c-6 21 -22 62 -30 83z" />
    <glyph glyph-name="x" unicode="x" horiz-adv-x="432" 
d="M177 199l-90 127c-15 22 -32 38 -60 43l-16 3c-6 5 -5 22 2 25c39 -2 62 -3 87 -3c24 0 46 1 85 3c7 -4 7 -20 1 -25l-15 -3c-27 -5 -26 -11 -9 -35l48 -70c4 -6 10 -14 13 -17c4 3 37 53 58 85c17 26 14 31 -8 37l-12 3c-6 6 -4 22 4 25c23 -2 49 -3 73 -3
c23 0 54 1 73 3c8 -4 8 -20 2 -25l-15 -3c-24 -5 -39 -8 -50 -17c-17 -14 -54 -60 -94 -114c-12 -16 -12 -19 1 -37l93 -131c23 -32 39 -45 66 -47l16 -1c6 -6 5 -22 -2 -25c-37 2 -70 3 -99 3c-37 0 -63 -1 -95 -3c-8 3 -10 20 -3 25l29 3c29 3 30 12 17 30l-52 75
c-12 18 -18 26 -22 29c-3 -3 -11 -13 -18 -24l-42 -66c-20 -32 -22 -40 3 -44l17 -3c6 -5 5 -22 -2 -25c-25 2 -50 3 -74 3c-25 0 -47 -1 -73 -3c-8 4 -9 21 -2 25l23 4c18 3 32 11 50 30c21 22 66 89 89 117c9 11 11 15 3 26z" />
    <glyph glyph-name="y" unicode="y" horiz-adv-x="438" 
d="M68 -249c-29 0 -44 18 -44 43c0 27 18 40 40 40h19c16 0 26 7 33 18c29 45 49 87 58 111c3 8 10 29 10 43c0 20 -4 32 -17 69l-78 214c-17 47 -24 71 -59 78l-25 5c-6 5 -5 22 3 25c32 -2 62 -3 95 -3c27 0 55 1 87 3c8 -3 9 -20 2 -25l-25 -5c-14 -3 -22 -6 -22 -13
c0 -12 23 -77 29 -94l32 -92c6 -16 25 -69 29 -71c3 2 19 33 37 74l34 79c22 52 35 89 35 100c0 7 -6 14 -24 17l-31 5c-7 5 -6 22 2 25c32 -2 62 -3 88 -3c25 0 48 1 76 3c8 -4 9 -19 2 -25l-17 -3c-33 -6 -51 -35 -85 -106l-56 -115c-33 -67 -115 -241 -164 -350
c-17 -38 -41 -47 -64 -47z" />
    <glyph glyph-name="z" unicode="z" horiz-adv-x="377" 
d="M226 0h-90c-54 0 -93 -1 -105 -3c-4 2 -6 6 -6 10c20 24 66 95 96 147l106 180c16 28 9 30 -9 30h-69c-30 0 -54 -3 -69 -15c-17 -13 -27 -36 -36 -58c-5 -6 -20 -4 -23 4c2 26 19 93 33 117c3 2 9 2 12 0c3 -17 14 -18 71 -18h142c27 0 46 0 61 3c4 -2 6 -5 5 -10
c-21 -29 -45 -66 -74 -114l-121 -203c-21 -36 -19 -40 19 -40h34c39 0 90 0 118 30c11 12 21 33 32 58c7 4 19 2 22 -6c-9 -49 -24 -96 -37 -115c-33 2 -66 3 -112 3z" />
    <glyph glyph-name="braceleft" unicode="{" horiz-adv-x="320" 
d="M216 375c0 -57 -23 -92 -75 -105v-4c52 -13 75 -48 75 -105c0 -34 -5 -69 -9 -103s-10 -67 -10 -100c0 -39 10 -84 84 -96c5 -4 5 -15 0 -20c-49 0 -142 9 -142 126c0 35 4 71 8 107c4 35 7 69 7 99c0 34 -4 77 -87 83c-5 6 -5 16 0 22c83 6 87 49 87 83
c0 31 -4 64 -7 100c-3 35 -8 72 -8 106c0 117 93 126 142 126c5 -5 5 -15 0 -20c-74 -12 -84 -57 -84 -96c0 -32 5 -66 10 -100s9 -68 9 -103z" />
    <glyph glyph-name="bar" unicode="|" horiz-adv-x="239" 
d="M149 750v-1000h-59v1000h59z" />
    <glyph glyph-name="braceright" unicode="}" horiz-adv-x="320" 
d="M104 375c0 35 4 69 9 103s10 68 10 100c0 39 -10 84 -84 96c-5 5 -5 15 0 20c49 0 142 -9 142 -126c0 -34 -5 -71 -8 -106c-3 -36 -7 -69 -7 -100c0 -34 4 -77 87 -83c5 -6 5 -16 0 -22c-83 -6 -87 -49 -87 -83c0 -30 3 -64 7 -99c4 -36 8 -72 8 -107
c0 -117 -93 -126 -142 -126c-5 5 -5 16 0 20c74 12 84 57 84 96c0 33 -6 66 -10 100s-9 69 -9 103c0 57 23 92 75 105v4c-52 13 -75 48 -75 105z" />
    <glyph glyph-name="asciitilde" unicode="~" horiz-adv-x="500" 
d="M322 180h-124c-52 0 -64 -15 -89 -65c-13 -5 -29 -1 -33 14c6 15 26 60 45 80c17 17 37 21 57 21h124c52 0 64 15 89 65c13 5 29 1 33 -14c-6 -15 -24 -62 -46 -82c-17 -15 -34 -19 -56 -19z" />
    <glyph glyph-name="exclamdown" unicode="&#xa1;" horiz-adv-x="220" 
d="M110 -266c-32 0 -49 4 -49 29c0 15 2 36 7 89l29 323c6 6 21 6 26 0l29 -323c5 -53 7 -74 7 -89c0 -25 -17 -29 -49 -29zM110 280c-29 0 -56 21 -56 55s24 59 56 59c34 0 56 -27 56 -59s-22 -55 -56 -55z" />
    <glyph glyph-name="cent" unicode="&#xa2;" horiz-adv-x="500" 
d="M314 490l-40 -333c12 -3 26 -4 40 -4c59 0 90 29 115 56c9 2 17 -5 16 -12c-41 -67 -102 -91 -177 -91l-12 -102c-9 -5 -25 -5 -33 0l13 105c-97 12 -171 82 -171 196c0 133 99 211 221 221l10 86c9 5 24 5 33 0l-10 -84c27 0 53 -5 80 -11c14 -12 22 -31 22 -51
s-7 -35 -12 -35c-4 0 -8 2 -14 9c-16 19 -44 41 -81 50zM243 166l39 327c-83 1 -148 -57 -148 -156c0 -64 33 -140 109 -171z" />
    <glyph glyph-name="sterling" unicode="&#xa3;" horiz-adv-x="500" 
d="M34 333h81c14 0 15 1 14 9c-1 17 -1 33 -1 59c0 138 88 239 213 239c22 0 44 -6 56 -15c8 -7 11 -13 11 -23c0 -20 -19 -42 -29 -42c-4 0 -8 2 -15 7c-24 19 -44 31 -68 31c-46 0 -94 -46 -94 -140c0 -36 3 -64 7 -110c1 -13 3 -15 20 -15h147c9 -6 9 -27 0 -32h-146
c-17 0 -21 -1 -21 -14c0 -104 -42 -162 -95 -207l1 -2c15 2 36 5 80 -1c22 -3 55 -17 88 -31s64 -26 92 -26c42 0 45 34 39 72c-4 24 8 35 24 35c21 0 36 -21 36 -45c0 -51 -70 -112 -157 -112c-30 0 -59 12 -109 39c-35 19 -73 37 -103 37c-29 0 -34 -19 -34 -33
s-27 -27 -38 -27c-13 0 -18 6 -18 18c0 20 22 44 48 65c48 41 69 110 69 218c0 11 -1 14 -16 14h-82c-8 6 -8 26 0 32z" />
    <glyph glyph-name="fraction" unicode="&#x2044;" horiz-adv-x="100" 
d="M-183 -14c147 223 293 445 436 668c12 0 24 -7 31 -23c-149 -224 -295 -447 -440 -671c-17 0 -26 11 -27 26z" />
    <glyph glyph-name="fraction" unicode="&#x2215;" horiz-adv-x="100" 
d="M-183 -14c147 223 293 445 436 668c12 0 24 -7 31 -23c-149 -224 -295 -447 -440 -671c-17 0 -26 11 -27 26z" />
    <glyph glyph-name="yen" unicode="&#xa5;" horiz-adv-x="500" 
d="M449 209h-151v-86c0 -77 2 -95 43 -99l37 -4c6 -5 5 -20 -2 -23c-36 2 -81 3 -116 3c-31 0 -76 -1 -112 -3c-7 3 -8 18 -2 23l37 4c42 5 43 22 43 99v86h-152c-7 6 -7 26 0 32h150v81h-150c-7 6 -7 26 0 32h136l-102 173c-32 55 -41 69 -80 78l-21 5c-5 5 -6 17 3 21
c25 -2 65 -3 108 -3c44 0 70 1 95 3c7 -3 7 -16 2 -21l-38 -7c-15 -3 -20 -8 -20 -15s24 -51 35 -71l51 -91c16 -29 29 -56 33 -56c5 0 16 11 31 39l38 70c25 47 52 99 52 106c0 11 -6 15 -23 18l-38 7c-6 5 -5 18 3 21c30 -2 62 -3 94 -3c26 0 50 1 75 3c7 -4 7 -15 2 -21
l-24 -5c-30 -6 -51 -42 -84 -98l-89 -153h136c7 -6 7 -26 0 -32h-149v-81h149c7 -6 7 -26 0 -32z" />
    <glyph glyph-name="florin" unicode="&#x192;" horiz-adv-x="500" 
d="M117 427h92c11 55 23 100 41 138c26 54 88 132 166 132c50 0 71 -29 71 -51c0 -29 -27 -46 -36 -46s-16 6 -24 18c-12 19 -28 37 -51 37c-44 0 -70 -110 -89 -228h113c8 -6 10 -26 0 -33h-121c-10 -53 -19 -104 -28 -157c-34 -210 -71 -282 -112 -319
c-23 -21 -52 -40 -95 -40s-65 30 -65 64c0 21 11 32 17 32c8 0 19 -8 25 -15c19 -17 47 -35 65 -35c19 0 41 21 61 143c11 69 34 197 55 327h-85c-7 5 -7 27 0 33z" />
    <glyph glyph-name="section" unicode="&#xa7;" horiz-adv-x="506" 
d="M185 -124c-47 0 -80 21 -80 50c0 18 13 36 35 36c12 0 18 -3 25 -9c36 -30 61 -35 85 -35c30 0 69 22 69 62c0 59 -83 136 -139 192c-71 71 -130 138 -130 242c0 119 123 262 266 262c56 0 77 -28 77 -46c0 -14 -14 -32 -33 -32c-14 0 -20 2 -28 8c-31 21 -61 29 -82 29
c-32 0 -59 -23 -59 -60c0 -50 35 -89 142 -187c83 -77 123 -145 123 -233c0 -123 -113 -279 -271 -279zM225 224c99 -100 134 -148 134 -229c40 36 48 75 48 116c0 91 -44 153 -122 227c-107 102 -134 145 -134 227c-33 -28 -52 -57 -52 -107c0 -44 6 -114 126 -234z" />
    <glyph glyph-name="currency" unicode="&#xa4;" horiz-adv-x="500" 
d="M251 493c-85 0 -159 -75 -159 -168c0 -96 76 -168 159 -168s159 73 159 168c0 93 -76 168 -159 168zM251 539c47 0 89 -14 125 -40l41 51c23 -7 46 -27 49 -48l-45 -45c29 -35 46 -82 46 -132s-17 -97 -46 -132l45 -45c-3 -21 -26 -41 -49 -48l-41 51
c-36 -26 -78 -40 -125 -40s-89 14 -125 40l-41 -51c-23 7 -46 27 -49 48l45 45c-29 35 -46 82 -46 132s17 97 46 132l-45 45c3 21 26 41 49 48l41 -51c36 26 78 40 125 40z" />
    <glyph glyph-name="quotesingle" unicode="'" horiz-adv-x="235" 
d="M118 700c28 0 43 -2 43 -24c0 -7 -2 -18 -5 -39l-26 -161c-8 -8 -16 -8 -24 0l-26 161c-3 21 -5 32 -5 39c0 22 15 24 43 24z" />
    <glyph glyph-name="quotedblleft" unicode="&#x201c;" horiz-adv-x="404" 
d="M301 473c-41 0 -77 44 -77 96c0 69 54 117 117 136c8 -4 12 -14 7 -21c-37 -17 -76 -45 -76 -86c0 -38 31 -55 50 -56c14 -1 27 -9 27 -28c0 -15 -9 -41 -48 -41zM132 473c-41 0 -77 44 -77 96c0 69 54 117 117 136c8 -4 12 -14 7 -21c-37 -17 -76 -45 -76 -86
c0 -38 31 -55 50 -56c14 -1 27 -9 27 -28c0 -15 -9 -41 -48 -41z" />
    <glyph glyph-name="guillemotleft" unicode="&#xab;" horiz-adv-x="378" 
d="M188 358l-70 -140c-4 -9 -3 -17 0 -24l70 -142c-3 -7 -8 -11 -17 -13c-39 50 -77 101 -119 151c-9 11 -10 20 0 31c42 50 80 100 119 150c7 -1 14 -5 17 -13zM333 358l-70 -140c-4 -9 -3 -17 0 -24l70 -142c-3 -7 -8 -11 -17 -13c-39 50 -77 101 -119 151
c-9 11 -10 20 0 31c42 50 80 100 119 150c7 -1 14 -5 17 -13z" />
    <glyph glyph-name="guilsinglleft" unicode="&#x2039;" horiz-adv-x="233" 
d="M188 358l-70 -140c-4 -9 -3 -17 0 -24l70 -142c-3 -7 -8 -11 -17 -13c-39 50 -77 101 -119 151c-9 11 -10 20 0 31c42 50 80 100 119 150c7 -1 14 -5 17 -13z" />
    <glyph glyph-name="guilsinglright" unicode="&#x203a;" horiz-adv-x="233" 
d="M115 218l-70 140c3 8 10 12 17 13c39 -50 77 -100 119 -150c10 -11 9 -20 0 -31c-42 -50 -80 -101 -119 -151c-9 2 -14 6 -17 13l70 142c3 7 4 15 0 24z" />
    <glyph glyph-name="endash" unicode="&#x2013;" horiz-adv-x="500" 
d="M0 230h500v-49h-500v49z" />
    <glyph glyph-name="dagger" unicode="&#x2020;" horiz-adv-x="480" 
d="M256 -127h-32v137c0 116 -15 185 -35 252c31 38 36 84 36 175c-62 0 -98 -31 -128 -31c-32 0 -47 19 -47 44c0 24 15 43 47 43c30 0 66 -30 128 -30c0 111 -31 135 -31 165c0 20 12 48 46 48s46 -28 46 -48c0 -30 -31 -54 -31 -165c62 0 98 30 129 30s46 -19 46 -43
c0 -25 -15 -44 -46 -44s-67 31 -129 31c0 -91 5 -137 36 -175c-20 -67 -35 -136 -35 -252v-137z" />
    <glyph glyph-name="daggerdbl" unicode="&#x2021;" horiz-adv-x="480" 
d="M240 676c33 0 45 -27 45 -46c0 -30 -30 -53 -30 -163c29 0 54 7 76 14c20 7 38 16 54 16c31 0 44 -19 44 -43s-13 -42 -44 -42c-33 0 -68 29 -130 29c0 -78 5 -123 36 -154c-31 -28 -36 -73 -36 -165c29 0 54 7 76 14c20 7 38 16 54 16c31 0 44 -19 44 -43
s-13 -42 -44 -42c-33 0 -68 29 -130 29c0 -109 30 -143 30 -173c0 -19 -12 -47 -45 -47s-45 28 -45 47c0 30 30 64 30 173c-62 0 -97 -30 -130 -29c-31 0 -44 18 -44 42s13 43 44 43c16 0 34 -9 54 -16c22 -7 47 -14 76 -14c0 92 -5 137 -36 165c31 31 36 76 36 154
c-62 0 -97 -30 -130 -29c-31 0 -44 18 -44 42s13 43 44 43c16 0 34 -9 54 -16c22 -7 47 -14 76 -14c0 110 -30 133 -30 163c0 19 12 46 45 46z" />
    <glyph glyph-name="periodcentered" unicode="&#xb7;" horiz-adv-x="250" 
d="M125 148c-29 0 -56 21 -56 55s24 59 56 59c34 0 56 -27 56 -59s-22 -55 -56 -55z" />
    <glyph glyph-name="periodcentered" unicode="&#x2219;" horiz-adv-x="250" 
d="M125 148c-29 0 -56 21 -56 55s24 59 56 59c34 0 56 -27 56 -59s-22 -55 -56 -55z" />
    <glyph glyph-name="paragraph" unicode="&#xb6;" horiz-adv-x="500" 
d="M366 441v-464c0 -87 -15 -192 -118 -192c-39 0 -88 19 -88 73c0 30 19 47 29 52c21 0 47 -15 51 -30c-5 -6 -14 -15 -14 -34s15 -31 33 -31c22 0 64 22 64 127v141c0 26 -7 32 -21 32c-135 0 -243 80 -243 206c0 147 107 219 278 219c58 0 104 -2 121 -5
c6 -4 6 -17 0 -21l-39 -7c-51 -9 -53 -15 -53 -66z" />
    <glyph glyph-name="bullet" unicode="&#x2022;" horiz-adv-x="388" 
d="M194 475c77 0 139 -61 139 -139s-62 -138 -139 -138s-139 60 -139 138s62 139 139 139z" />
    <glyph glyph-name="quotesinglbase" unicode="&#x201a;" horiz-adv-x="215" 
d="M93 100c41 0 77 -44 77 -96c-1 -69 -54 -117 -117 -136c-8 4 -12 14 -7 21c37 17 76 45 76 86c0 38 -31 55 -50 56c-14 1 -27 9 -27 28c0 15 9 41 48 41z" />
    <glyph glyph-name="quotedblbase" unicode="&#x201e;" horiz-adv-x="384" 
d="M262 100c41 0 77 -44 77 -96c-1 -69 -54 -117 -117 -136c-8 4 -12 14 -7 21c37 17 76 45 76 86c0 38 -31 55 -50 56c-14 1 -27 9 -27 28c0 15 9 41 48 41zM93 100c41 0 77 -44 77 -96c-1 -69 -54 -117 -117 -136c-8 4 -12 14 -7 21c37 17 76 45 76 86c0 38 -31 55 -50 56
c-14 1 -27 9 -27 28c0 15 9 41 48 41z" />
    <glyph glyph-name="quotedblright" unicode="&#x201d;" horiz-adv-x="404" 
d="M272 700c41 0 77 -44 77 -96c0 -69 -54 -117 -117 -136c-8 4 -12 14 -7 21c37 17 76 45 76 86c0 38 -31 55 -50 56c-14 1 -27 9 -27 28c0 15 9 41 48 41zM103 700c41 0 77 -44 77 -96c0 -69 -54 -117 -117 -136c-8 4 -12 14 -7 21c37 17 76 45 76 86c0 38 -31 55 -50 56
c-14 1 -27 9 -27 28c0 15 9 41 48 41z" />
    <glyph glyph-name="guillemotright" unicode="&#xbb;" horiz-adv-x="378" 
d="M115 218l-70 140c3 8 10 12 17 13c39 -50 77 -100 119 -150c10 -11 9 -20 0 -31c-42 -50 -80 -101 -119 -151c-9 2 -14 6 -17 13l70 142c3 7 4 15 0 24zM260 218l-70 140c3 8 10 12 17 13c39 -50 77 -100 119 -150c10 -11 9 -20 0 -31c-42 -50 -80 -101 -119 -151
c-9 2 -14 6 -17 13l70 142c3 7 4 15 0 24z" />
    <glyph glyph-name="ellipsis" unicode="&#x2026;" horiz-adv-x="1000" 
d="M500 -14c-29 0 -56 21 -56 55s24 59 56 59c34 0 56 -27 56 -59s-22 -55 -56 -55zM833 -14c-29 0 -56 21 -56 55s24 59 56 59c34 0 56 -27 56 -59s-22 -55 -56 -55zM167 -14c-29 0 -56 21 -56 55s24 59 56 59c34 0 56 -27 56 -59s-22 -55 -56 -55z" />
    <glyph glyph-name="perthousand" unicode="&#x2030;" horiz-adv-x="1144" 
d="M759 170c0 -75 -44 -184 -146 -184s-146 109 -146 184c0 77 44 185 146 185s146 -108 146 -185zM690 170c0 50 -8 157 -76 157s-78 -105 -78 -157c0 -51 10 -156 78 -156s76 107 76 156zM337 455c0 -75 -44 -184 -146 -184s-146 109 -146 184c0 77 44 185 146 185
s146 -108 146 -185zM268 455c0 50 -8 157 -76 157s-78 -105 -78 -157c0 -51 10 -156 78 -156s76 107 76 156zM1099 170c0 -75 -44 -184 -146 -184s-146 109 -146 184c0 77 44 185 146 185s146 -108 146 -185zM1030 170c0 50 -8 157 -76 157s-78 -105 -78 -157
c0 -51 10 -156 78 -156s76 107 76 156zM616 635l-407 -675c-16 0 -30 9 -30 22l404 670c10 1 24 -5 33 -17z" />
    <glyph glyph-name="questiondown" unicode="&#xbf;" horiz-adv-x="321" 
d="M217 -266c-80 0 -172 98 -172 204c0 55 23 82 38 90l79 42c23 12 35 26 35 44c0 16 -5 38 -10 58c4 8 15 10 21 5c14 -23 36 -69 36 -99c0 -41 -24 -56 -54 -72l-49 -26c-40 -21 -55 -47 -55 -73c0 -21 5 -44 22 -61c28 -28 64 -32 116 -32c9 0 33 -16 33 -42
c0 -20 -14 -38 -40 -38zM196 280c-29 0 -56 21 -56 55s24 59 56 59c34 0 56 -27 56 -59s-22 -55 -56 -55z" />
    <glyph glyph-name="grave" unicode="`" 
d="M139 640l79 -161c0 -9 -15 -13 -21 -12l-117 127c-12 13 -17 22 -17 30c0 7 7 15 19 25c15 10 27 14 34 14c10 0 17 -10 23 -23z" />
    <glyph glyph-name="acute" unicode="&#xb4;" 
d="M275 596l-125 -130c-7 -1 -16 4 -17 11l86 163c6 11 14 24 24 24c7 0 19 -5 31 -15c10 -8 17 -18 17 -26c0 -6 -6 -17 -16 -27z" />
    <glyph glyph-name="circumflex" unicode="&#x2c6;" 
d="M266 465l-73 92c-12 15 -15 15 -27 0l-74 -92c-6 -2 -19 3 -20 9l90 177c11 21 24 21 35 0l91 -177c-1 -6 -17 -11 -22 -9z" />
    <glyph glyph-name="tilde" unicode="&#x2dc;" 
d="M152 583h54c41 0 53 4 77 39c6 3 14 2 17 -6c-6 -26 -24 -58 -38 -73c-15 -13 -27 -16 -49 -16h-53c-45 0 -64 -16 -83 -52c-5 -4 -14 -2 -17 4c3 16 21 65 37 81c16 17 31 23 55 23z" />
    <glyph glyph-name="macron" unicode="&#xaf;" 
d="M283 524h-204c-11 14 -11 43 0 57h204c9 -14 9 -43 0 -57z" />
    <glyph glyph-name="macron" unicode="&#x2c9;" 
d="M283 524h-204c-11 14 -11 43 0 57h204c9 -14 9 -43 0 -57z" />
    <glyph glyph-name="breve" unicode="&#x2d8;" 
d="M180 501c-69 0 -109 42 -104 131c5 4 17 4 22 0c12 -53 50 -74 82 -74s70 21 83 74c4 4 16 4 22 0c4 -89 -36 -131 -105 -131z" />
    <glyph glyph-name="dotaccent" unicode="&#x2d9;" 
d="M184 612c30 0 48 -24 48 -52c0 -35 -23 -50 -51 -50c-31 0 -50 22 -50 49c0 33 23 53 53 53z" />
    <glyph glyph-name="dieresis" unicode="&#xa8;" 
d="M93 512c-28 0 -48 18 -49 49c-1 29 20 52 49 52s50 -24 50 -48c0 -31 -21 -53 -50 -53zM268 512c-28 0 -50 19 -51 50c0 28 22 51 51 51s48 -24 48 -47c0 -31 -19 -54 -48 -54z" />
    <glyph glyph-name="ring" unicode="&#x2da;" 
d="M180 641c50 0 85 -39 85 -81c0 -43 -35 -81 -85 -81s-85 38 -85 81c0 42 35 81 85 81zM135 560c0 -31 20 -53 45 -53c26 0 45 22 45 53c0 30 -19 52 -45 52c-25 0 -45 -22 -45 -52z" />
    <glyph glyph-name="cedilla" unicode="&#xb8;" 
d="M204 0h31l-34 -55c-4 -7 -3 -14 8 -21c24 -16 41 -37 41 -63c0 -45 -46 -78 -92 -78c-33 0 -51 13 -51 31c0 10 8 23 22 23c17 0 34 -26 46 -26c11 0 24 7 24 28c0 23 -24 47 -55 59v5z" />
    <glyph glyph-name="hungarumlaut" unicode="&#x2dd;" 
d="M204 604l-92 -134c-7 -1 -17 3 -17 11l55 163c5 11 10 21 17 22c8 2 17 -3 32 -11c9 -6 15 -12 16 -20c1 -7 -3 -20 -11 -31zM336 604l-92 -134c-7 -1 -18 3 -17 11l55 163c5 11 11 21 17 23c8 1 17 -4 32 -12c9 -4 15 -11 16 -19s-4 -21 -11 -32z" />
    <glyph glyph-name="ogonek" unicode="&#x2db;" 
d="M170 5h23c-12 -29 -18 -62 -18 -89c0 -49 33 -74 70 -74c12 0 29 1 42 8c5 -3 8 -8 8 -17c-25 -31 -63 -42 -99 -42c-53 0 -86 34 -86 85c0 40 26 85 60 129z" />
    <glyph glyph-name="caron" unicode="&#x2c7;" 
d="M93 670l75 -93c10 -13 17 -12 27 0l75 93c6 1 17 -3 18 -13l-90 -177c-10 -20 -23 -19 -33 0l-92 177c1 10 15 13 20 13z" />
    <glyph glyph-name="emdash" unicode="&#x2014;" horiz-adv-x="1000" 
d="M0 230h1000v-49h-1000v49z" />
    <glyph glyph-name="AE" unicode="&#xc6;" horiz-adv-x="850" 
d="M363 660h262c64 0 123 0 135 3c6 -17 12 -89 16 -132c-4 -7 -20 -9 -25 -3c-15 47 -24 84 -76 96c-21 5 -53 5 -97 5h-72c-29 0 -29 -2 -29 -40v-200c0 -28 3 -28 33 -28h58c42 0 73 2 85 6s19 10 24 35l8 41c5 6 22 6 26 -1c0 -24 -4 -63 -4 -101c0 -36 4 -74 4 -96
c-4 -7 -21 -7 -26 -1l-9 39c-4 18 -11 33 -31 38c-14 4 -38 5 -77 5h-58c-30 0 -33 -1 -33 -27v-141c0 -54 3 -87 18 -104c12 -12 33 -23 122 -23c76 0 105 3 127 15c18 10 45 45 71 97c6 5 21 2 25 -7c-7 -36 -32 -112 -45 -139c-90 2 -178 3 -268 3h-92
c-40 0 -74 -1 -133 -3c-6 3 -8 19 -2 25l34 3c56 5 61 20 61 125v147c0 29 -1 29 -44 29h-82c-43 0 -42 -2 -65 -44c-44 -82 -77 -151 -101 -212c-11 -28 -10 -36 15 -40l54 -8c6 -7 5 -21 -1 -25c-40 2 -76 3 -110 3c-38 0 -64 -2 -103 -3c-8 4 -10 20 -1 25l31 5
c24 4 39 16 70 72c93 170 188 354 243 461c15 28 24 47 24 57c0 8 -8 10 -22 12l-60 9c-7 6 -5 22 3 25c47 -2 73 -3 117 -3zM284 361h67c43 0 44 0 44 32v195c0 12 -1 32 -6 36h-5c-8 -4 -17 -20 -23 -31c-48 -91 -91 -179 -106 -210c-10 -21 -10 -22 29 -22z" />
    <glyph glyph-name="ordfeminine" unicode="&#xaa;" horiz-adv-x="332" 
d="M201 428v12c0 36 -6 70 -53 70c-21 0 -41 -9 -45 -31c-1 -6 -2 -20 -9 -26c-10 -7 -37 -17 -45 -17s-14 5 -14 13c0 11 7 28 30 46c26 21 73 45 115 45c67 0 84 -36 82 -86l-5 -122c-1 -32 5 -56 34 -56c9 0 20 4 29 10c8 0 12 -8 8 -14c-21 -22 -50 -32 -72 -32
c-15 0 -30 5 -46 20c-6 6 -10 9 -15 9c-4 0 -9 -2 -16 -6c-11 -6 -46 -23 -70 -23c-53 0 -76 33 -76 70c0 26 18 46 39 55c46 18 86 30 107 38c19 7 22 13 22 25zM196 316l2 52c1 18 -9 15 -35 6s-64 -18 -64 -56c0 -16 11 -43 45 -43c23 0 39 11 44 16c5 6 8 15 8 25z" />
    <glyph glyph-name="Lslash" unicode="&#x141;" horiz-adv-x="559" 
d="M134 150v134l-106 -72c-13 3 -18 18 -16 32l122 83v183c0 105 -2 121 -65 126l-25 2c-6 4 -4 22 2 25c56 -2 90 -3 130 -3c39 0 73 1 123 3c6 -3 8 -21 2 -25l-24 -2c-59 -5 -61 -21 -61 -126v-126l137 91c12 -5 19 -19 15 -32l-152 -102v-179c0 -63 3 -89 21 -108
c11 -11 30 -23 109 -23c85 0 106 4 122 13c20 12 46 48 66 99c6 5 25 1 25 -6c0 -11 -28 -113 -42 -140c-51 2 -146 3 -249 3h-92c-42 0 -74 -1 -130 -3c-6 3 -8 19 -2 25l30 3c58 6 60 20 60 125z" />
    <glyph glyph-name="Oslash" unicode="&#xd8;" horiz-adv-x="795" 
d="M690 668l-55 -70c76 -65 114 -163 114 -268c0 -199 -154 -346 -347 -346c-80 0 -151 22 -207 59l-67 -83c-14 0 -28 11 -29 25l65 81c-76 62 -118 156 -118 257c0 200 150 353 356 353c79 0 147 -20 201 -55l57 72c15 -1 30 -13 30 -25zM586 537l-351 -443
c42 -48 102 -79 180 -79c120 0 234 90 234 287c0 83 -19 170 -63 235zM211 125l351 444c-42 47 -101 76 -177 76c-104 0 -239 -71 -239 -290c0 -76 19 -163 65 -230z" />
    <glyph glyph-name="OE" unicode="&#x152;" horiz-adv-x="1012" 
d="M619 660h169c64 0 122 0 135 3c5 -17 11 -89 15 -132c-4 -7 -19 -9 -25 -3c-15 47 -24 84 -76 96c-21 5 -52 5 -97 5h-72c-29 0 -29 -2 -29 -40v-201c0 -27 3 -27 32 -27h58c42 0 73 2 85 5c12 4 18 10 24 36l9 40c5 6 21 6 25 -1c0 -23 -4 -63 -4 -100s4 -74 4 -97
c-4 -7 -20 -7 -25 -1l-10 40c-4 17 -11 32 -31 38c-13 4 -38 5 -77 5h-58c-29 0 -32 -1 -32 -27v-141c0 -54 3 -87 19 -104c11 -12 32 -23 121 -23c77 0 105 3 127 15c19 10 45 45 71 97c7 5 21 2 25 -7c-7 -36 -32 -112 -45 -139c-90 2 -178 3 -268 3h-61
c-71 0 -132 -6 -197 -6c-233 0 -385 132 -385 331c0 196 156 338 394 338c60 0 120 -3 179 -3zM557 123v425c0 49 -10 66 -26 72c-27 9 -53 12 -96 12c-215 0 -289 -141 -289 -303c0 -103 47 -304 294 -304c34 0 67 6 87 15c25 14 30 36 30 83z" />
    <glyph glyph-name="ordmasculine" unicode="&#xba;" horiz-adv-x="387" 
d="M197 540c90 0 158 -61 158 -147c0 -88 -65 -153 -164 -153c-93 0 -159 60 -159 146c0 89 71 154 165 154zM189 514c-46 0 -83 -48 -83 -118c0 -62 28 -130 92 -130c63 0 83 65 83 116c0 54 -25 132 -92 132z" />
    <glyph glyph-name="ae" unicode="&#xe6;" horiz-adv-x="585" 
d="M243 110v53c0 16 -6 17 -22 12l-44 -15c-43 -15 -66 -40 -66 -74c0 -33 23 -55 54 -55c28 0 51 18 61 28c12 13 17 30 17 51zM243 231v41c0 49 -2 102 -68 102c-41 0 -57 -28 -59 -48c-1 -12 -3 -25 -11 -31c-11 -8 -38 -19 -56 -19c-7 0 -12 6 -12 14c0 22 24 52 53 73
c26 19 66 45 124 45c45 0 74 -22 87 -56c30 29 75 56 137 56c66 0 130 -42 130 -102c0 -12 -6 -22 -18 -26l-221 -71c-15 -5 -18 -8 -18 -23v-24c0 -81 51 -123 124 -123c42 0 73 11 116 63c8 4 18 -5 17 -12c-41 -75 -96 -104 -170 -104c-66 0 -110 31 -134 65l-41 -28
c-38 -26 -65 -37 -102 -37c-47 0 -86 36 -86 88c0 47 38 77 79 92l106 40c20 7 23 9 23 25zM329 241l113 37c32 10 44 16 44 37c0 36 -34 63 -73 63c-62 0 -102 -63 -102 -124c0 -15 2 -18 18 -13z" />
    <glyph glyph-name="dotlessi" unicode="&#x131;" horiz-adv-x="257" 
d="M98 112v175c0 39 0 44 -27 62l-9 6c-4 4 -4 15 1 18c23 8 80 34 103 49c5 0 9 -2 10 -6c-2 -35 -4 -83 -4 -124v-180c0 -72 2 -82 38 -87l21 -3c7 -5 5 -22 -2 -25c-30 2 -59 3 -94 3c-36 0 -66 -1 -94 -3c-7 3 -9 20 -2 25l21 3c37 5 38 15 38 87z" />
    <glyph glyph-name="lslash" unicode="&#x142;" horiz-adv-x="261" 
d="M285 413l-115 -101v-200c0 -72 2 -82 38 -87l24 -3c7 -5 5 -22 -2 -25c-33 2 -62 3 -97 3c-36 0 -66 -1 -96 -3c-7 3 -9 20 -2 25l23 3c37 5 38 15 38 87v135l-83 -71c-12 3 -19 16 -16 29l99 86v273c0 59 -1 65 -31 83l-10 6c-5 3 -5 17 0 20c25 8 72 23 108 42
c4 0 8 -2 10 -6c-1 -30 -3 -80 -3 -124v-229l97 85c12 -3 21 -14 18 -28z" />
    <glyph glyph-name="oslash" unicode="&#xf8;" horiz-adv-x="486" 
d="M144 88l175 253c-21 23 -48 37 -83 37c-69 0 -118 -63 -118 -173c0 -41 8 -84 26 -117zM340 312l-177 -254c22 -26 50 -42 87 -42c91 0 118 92 118 169c0 42 -8 89 -28 127zM410 413l-34 -49c46 -36 75 -93 75 -163c0 -125 -86 -215 -211 -215c-40 0 -76 9 -107 28
l-37 -55c-13 -1 -24 9 -26 22l36 52c-44 35 -71 90 -71 159c0 126 95 216 213 216c37 0 71 -9 100 -25l34 49c12 1 27 -8 28 -19z" />
    <glyph glyph-name="oe" unicode="&#x153;" horiz-adv-x="729" 
d="M121 204c0 -86 43 -188 127 -188c90 0 117 93 117 169c0 84 -34 193 -130 193c-66 0 -114 -71 -114 -174zM627 256h-165c-24 0 -27 -8 -27 -38c0 -90 57 -178 164 -178c47 0 67 12 95 49c8 3 18 -3 18 -10c-30 -69 -93 -93 -156 -93c-65 0 -124 32 -155 82
c-36 -55 -99 -82 -162 -82c-117 0 -204 81 -204 206c0 126 93 216 213 216c63 0 123 -29 157 -86c35 54 98 86 158 86c94 0 148 -59 148 -119c0 -8 -1 -19 -3 -23c-3 -6 -22 -10 -81 -10zM477 286h63c61 0 83 3 89 9c3 3 6 7 6 20c0 25 -19 63 -77 63
c-55 0 -109 -44 -109 -84c0 -4 3 -8 28 -8z" />
    <glyph glyph-name="germandbls" unicode="&#xdf;" horiz-adv-x="523" 
d="M169 411v-299c0 -72 2 -84 28 -87l24 -3c7 -5 5 -22 -2 -25c-33 2 -52 3 -87 3c-36 0 -66 -1 -96 -3c-7 3 -9 20 -2 25l23 3c37 5 38 15 38 87v211c0 27 0 29 -20 29h-35c-6 4 -7 13 -3 19l43 21c8 4 15 10 15 20c0 52 9 117 35 171c31 65 92 132 195 132
c109 0 150 -70 150 -133c0 -58 -36 -81 -70 -114l-24 -23c-29 -27 -46 -53 -46 -79c0 -40 30 -68 75 -104c41 -32 86 -72 86 -141c0 -84 -76 -135 -149 -135c-41 0 -66 8 -78 19c-13 13 -18 39 -6 57c4 6 15 8 21 2c13 -12 48 -48 73 -48c34 0 71 25 71 81
c0 46 -36 84 -77 115c-47 35 -81 76 -81 127c0 42 30 72 71 112c32 30 64 71 64 117c0 60 -41 112 -108 112c-83 0 -128 -113 -128 -269z" />
    <glyph glyph-name="onesuperior" unicode="&#xb9;" 
d="M153 401v193c0 37 -2 54 -31 57l-31 3c-6 4 -6 15 -1 19c55 9 95 25 122 35c3 0 7 -1 7 -5c-2 -21 -2 -49 -2 -73v-229c0 -50 1 -60 42 -65l17 -2c5 -4 5 -18 -1 -21c-30 1 -61 2 -92 2c-28 0 -60 -1 -88 -2c-6 3 -6 17 -1 21l17 2c41 5 42 15 42 65z" />
    <glyph glyph-name="logicalnot" unicode="&#xac;" horiz-adv-x="500" 
d="M408 50v206h-375v49h434v-255h-59z" />
    <glyph glyph-name="mu" unicode="&#xb5;" horiz-adv-x="512" 
d="M159 314v-167c0 -69 17 -115 93 -115c27 0 59 11 81 30c13 12 20 25 20 53v169c0 65 -7 67 -37 79l-13 5c-7 4 -7 18 1 22c40 1 95 8 117 18c5 -1 8 -3 9 -7c-2 -19 -3 -50 -3 -87v-168c0 -79 3 -109 31 -109c12 0 25 2 39 5c6 -5 7 -25 -1 -29c-39 -8 -97 -18 -131 -37
c-5 0 -10 3 -12 7v41c0 9 -3 14 -9 14c-30 -19 -79 -52 -146 -52c-25 0 -47 10 -56 14c-6 1 -10 -2 -10 -16v-57c0 -56 34 -118 34 -133c0 -22 -40 -63 -61 -63c-14 0 -20 11 -20 31v516c0 63 0 72 -30 85l-12 5c-6 5 -5 19 2 22c46 1 85 10 107 18c6 -1 9 -3 10 -7
c-2 -17 -3 -38 -3 -87z" />
    <glyph glyph-name="mu" unicode="&#x3bc;" horiz-adv-x="512" 
d="M159 314v-167c0 -69 17 -115 93 -115c27 0 59 11 81 30c13 12 20 25 20 53v169c0 65 -7 67 -37 79l-13 5c-7 4 -7 18 1 22c40 1 95 8 117 18c5 -1 8 -3 9 -7c-2 -19 -3 -50 -3 -87v-168c0 -79 3 -109 31 -109c12 0 25 2 39 5c6 -5 7 -25 -1 -29c-39 -8 -97 -18 -131 -37
c-5 0 -10 3 -12 7v41c0 9 -3 14 -9 14c-30 -19 -79 -52 -146 -52c-25 0 -47 10 -56 14c-6 1 -10 -2 -10 -16v-57c0 -56 34 -118 34 -133c0 -22 -40 -63 -61 -63c-14 0 -20 11 -20 31v516c0 63 0 72 -30 85l-12 5c-6 5 -5 19 2 22c46 1 85 10 107 18c6 -1 9 -3 10 -7
c-2 -17 -3 -38 -3 -87z" />
    <glyph glyph-name="trademark" unicode="&#x2122;" horiz-adv-x="550" 
d="M110 531v98c0 10 0 11 -10 11h-17c-24 0 -37 -9 -43 -32c-3 -1 -9 0 -10 3c5 29 9 47 12 60h9c8 -10 10 -11 28 -11h115c13 0 17 0 28 11h8c-4 -16 -6 -46 -5 -63c-2 -3 -8 -3 -10 -1c-4 21 -7 33 -37 33h-21c-7 0 -7 -1 -7 -11v-101c0 -27 1 -36 16 -40l15 -2
c3 -3 2 -12 -1 -13c-20 1 -32 1 -48 1c-22 0 -36 0 -52 -1c-4 2 -4 8 -1 13l14 2c15 2 17 16 17 43zM464 517l-2 89c0 5 0 9 -1 10c-1 0 -11 -19 -17 -30l-25 -49c-3 -7 -26 -51 -30 -64c-5 -2 -10 -2 -11 -1c-6 16 -19 43 -26 57l-25 50c-8 17 -19 41 -21 42
c-1 -2 -2 -15 -3 -47c-1 -17 -1 -42 -1 -61c0 -20 4 -24 19 -26l8 -1c2 -3 2 -9 0 -13c-9 1 -22 1 -43 1c-10 0 -22 0 -37 -1c-3 2 -3 9 -1 13l5 1c12 1 22 9 23 21c4 39 8 79 8 119c0 11 -7 18 -22 20l-7 1c-2 3 -1 12 1 13c10 -1 20 -1 31 -1c16 0 27 0 42 1
c0 -10 14 -36 22 -51l25 -47c7 -12 15 -27 17 -28c1 1 10 16 17 28l24 43c8 14 17 33 23 55c15 -1 23 -1 30 -1c13 0 25 0 36 1c6 -1 6 -11 1 -13l-9 -1c-15 -2 -17 -9 -17 -22c0 -31 1 -78 3 -109c1 -21 3 -24 12 -27l14 -3c3 -2 3 -11 0 -13c-13 1 -35 1 -46 1
c-15 0 -28 0 -41 -1c-3 2 -4 11 0 13l9 3c15 5 15 8 15 28z" />
    <glyph glyph-name="Eth" unicode="&#xd0;" horiz-adv-x="786" 
d="M128 150v176h-90c-9 7 -9 28 0 35h90v144c0 90 -3 120 -52 126l-17 2c-8 4 -9 20 1 24c85 3 170 6 255 6c84 0 151 -5 216 -29c135 -49 203 -163 203 -294c0 -129 -61 -238 -175 -300c-65 -35 -147 -48 -224 -48c-64 0 -128 8 -163 8c-42 0 -78 -1 -125 -3
c-6 3 -8 19 -2 25l23 3c58 8 60 20 60 125zM210 542v-181h184c9 -7 9 -28 0 -35h-184v-153c0 -53 3 -85 20 -109c22 -31 60 -41 123 -41c194 0 281 127 281 313c0 108 -53 296 -315 296c-59 0 -91 -8 -99 -14s-10 -31 -10 -76z" />
    <glyph glyph-name="onehalf" unicode="&#xbd;" horiz-adv-x="780" 
d="M130 -14c147 223 293 445 436 668c12 0 24 -7 31 -23c-149 -224 -295 -447 -440 -671c-17 0 -26 11 -27 26zM117 333v193c0 37 -2 54 -31 57l-31 3c-6 4 -6 15 -1 19c55 9 95 25 122 35c3 0 7 -1 7 -5c-2 -21 -2 -49 -2 -73v-229c0 -50 1 -60 42 -65l17 -2
c5 -4 5 -18 -1 -21c-30 1 -61 2 -92 2c-28 0 -60 -1 -88 -2c-6 3 -6 17 -1 21l17 2c41 5 42 15 42 65zM563 48h71c47 0 73 3 95 36c7 3 15 1 19 -7c-16 -35 -26 -67 -39 -79c-25 1 -82 2 -113 2h-72c-38 0 -60 -1 -75 -2c-2 2 -5 4 -5 7s0 6 2 9c32 20 56 40 104 88
c42 42 92 103 92 166c0 52 -30 84 -75 84c-37 0 -67 -24 -90 -63c-8 -5 -19 1 -19 9c27 62 77 95 139 95c73 0 118 -43 118 -103c0 -42 -18 -80 -76 -138l-56 -56c-25 -25 -34 -34 -34 -40s7 -8 14 -8z" />
    <glyph glyph-name="plusminus" unicode="&#xb1;" horiz-adv-x="500" 
d="M443 49v-49h-385v49h385zM280 84h-59v170h-163v49h163v163h59v-163h163v-49h-163v-170z" />
    <glyph glyph-name="Thorn" unicode="&#xde;" horiz-adv-x="561" 
d="M128 150v360c0 109 -7 121 -63 126l-22 2c-6 4 -4 22 2 25c50 -2 84 -3 126 -3c45 0 75 1 121 3c6 -5 6 -20 2 -25l-16 -2c-63 -8 -68 -26 -68 -115h81c126 0 227 -50 227 -179c0 -80 -51 -127 -90 -147c-48 -24 -110 -31 -146 -29c-6 3 -6 17 -1 20
c96 14 146 64 146 152c0 93 -54 152 -160 152c-53 0 -57 -4 -57 -35v-305c0 -105 2 -120 60 -125l37 -3c6 -4 4 -22 -2 -25c-60 2 -94 3 -134 3c-42 0 -77 -1 -123 -3c-6 3 -8 19 -2 25l22 3c58 8 60 20 60 125z" />
    <glyph glyph-name="onequarter" unicode="&#xbc;" horiz-adv-x="780" 
d="M138 -14c147 223 293 445 436 668c12 0 24 -7 31 -23c-149 -224 -295 -447 -440 -671c-17 0 -26 11 -27 26zM110 333v193c0 37 -2 54 -31 57l-31 3c-6 4 -6 15 -1 19c55 9 95 25 122 35c3 0 7 -1 7 -5c-2 -21 -2 -49 -2 -73v-229c0 -50 1 -60 42 -65l17 -2
c5 -4 5 -18 -1 -21c-30 1 -61 2 -92 2c-28 0 -60 -1 -88 -2c-6 3 -6 17 -1 21l17 2c41 5 42 15 42 65zM475 145h90c16 0 18 2 18 16v109c0 4 1 9 6 12c9 5 31 11 46 11c11 0 11 -7 11 -19v-115c0 -12 2 -14 15 -14h37c8 -5 8 -23 0 -29h-33c-18 0 -19 -2 -19 -16v-14
c0 -56 -1 -61 39 -65l18 -2c4 -6 4 -18 -2 -21c-21 1 -44 2 -86 2c-37 0 -76 -1 -89 -2c-6 3 -7 15 -2 21l18 2c41 5 41 11 41 65v12c0 15 -1 18 -19 18h-155c-5 0 -9 4 -9 10c0 7 2 11 9 20l213 274c7 9 11 12 21 12c12 0 22 -1 22 -5c0 -2 -1 -4 -2 -6l-206 -264
c-10 -12 -1 -12 18 -12z" />
    <glyph glyph-name="divide" unicode="&#xf7;" horiz-adv-x="500" 
d="M248 128c23 0 44 -20 44 -44c0 -25 -21 -45 -44 -45c-25 0 -45 20 -45 45c0 24 20 44 45 44zM248 283c-25 0 -45 20 -45 45c0 24 20 44 45 44c23 0 44 -20 44 -44c0 -25 -21 -45 -44 -45zM443 230v-49h-385v49h385z" />
    <glyph glyph-name="brokenbar" unicode="&#xa6;" horiz-adv-x="239" 
d="M149 675v-350h-59v350h59zM149 175v-350h-59v350h59z" />
    <glyph glyph-name="degree" unicode="&#xb0;" horiz-adv-x="302" 
d="M151 640c66 0 121 -46 121 -116c0 -74 -55 -116 -121 -116s-121 42 -121 116c0 70 55 116 121 116zM151 609c-40 0 -70 -34 -70 -85s30 -85 70 -85s70 34 70 85s-30 85 -70 85z" />
    <glyph glyph-name="thorn" unicode="&#xfe;" horiz-adv-x="499" 
d="M151 -38v-105c0 -72 2 -80 38 -85l39 -5c7 -5 5 -22 -2 -25c-48 2 -77 3 -112 3c-36 0 -66 -1 -94 -3c-7 3 -9 20 -2 25l21 3c37 5 38 15 38 87v687c0 59 -1 65 -31 83l-10 6c-5 3 -5 17 0 20c23 9 71 22 109 42c4 0 8 -2 10 -6c-2 -35 -4 -80 -4 -124v-191
c0 -7 3 -13 7 -13c13 6 76 47 140 47c101 0 166 -82 166 -180c0 -142 -102 -242 -241 -242c-21 0 -49 2 -58 4c-9 -2 -14 -7 -14 -28zM151 273v-172c0 -30 10 -42 31 -58c20 -16 49 -24 75 -24c78 0 126 76 126 173c0 87 -45 168 -135 168c-43 0 -74 -16 -85 -28
c-9 -11 -12 -26 -12 -59z" />
    <glyph glyph-name="threequarters" unicode="&#xbe;" horiz-adv-x="780" 
d="M173 -14c147 223 293 445 436 668c12 0 24 -7 31 -23c-149 -224 -295 -447 -440 -671c-17 0 -26 11 -27 26zM249 359c0 44 -23 89 -83 89c-32 0 -56 -14 -72 -29c-10 5 -17 14 -13 27c24 10 79 33 106 51c16 11 31 30 31 56c0 35 -25 53 -53 53c-32 0 -62 -21 -85 -58
c-9 -1 -15 4 -17 11c25 50 73 81 129 81c58 0 96 -34 96 -71c0 -29 -15 -53 -73 -80c-5 -6 0 -10 8 -10c51 0 98 -35 98 -95c0 -45 -23 -89 -69 -123c-53 -39 -111 -53 -144 -53s-71 9 -71 39c0 18 14 32 33 32c15 0 26 -15 33 -26s17 -18 32 -18c40 0 114 43 114 124z
M495 145h90c16 0 18 2 18 16v109c0 4 1 9 6 12c9 5 31 11 46 11c11 0 11 -7 11 -19v-115c0 -12 2 -14 15 -14h37c8 -5 8 -23 0 -29h-33c-18 0 -19 -2 -19 -16v-14c0 -56 -1 -61 39 -65l18 -2c4 -6 4 -18 -2 -21c-21 1 -44 2 -86 2c-37 0 -76 -1 -89 -2c-6 3 -7 15 -2 21
l18 2c41 5 41 11 41 65v12c0 15 -1 18 -19 18h-155c-5 0 -9 4 -9 10c0 7 2 11 9 20l213 274c7 9 11 12 21 12c12 0 22 -1 22 -5c0 -2 -1 -4 -2 -6l-206 -264c-10 -12 -1 -12 18 -12z" />
    <glyph glyph-name="twosuperior" unicode="&#xb2;" 
d="M148 363h71c47 0 73 3 95 36c7 3 15 1 19 -7c-16 -35 -26 -67 -39 -79c-25 1 -82 2 -113 2h-72c-38 0 -60 -1 -75 -2c-2 2 -5 4 -5 7s0 6 2 9c32 20 56 40 104 88c42 42 92 103 92 166c0 52 -30 84 -75 84c-37 0 -67 -24 -90 -63c-8 -5 -19 1 -19 9c27 62 77 95 139 95
c73 0 118 -43 118 -103c0 -42 -18 -80 -76 -138l-56 -56c-25 -25 -34 -34 -34 -40s7 -8 14 -8z" />
    <glyph glyph-name="registered" unicode="&#xae;" horiz-adv-x="320" 
d="M118 522v57c0 13 -3 19 -11 20h-4c-2 4 -2 10 1 11c21 1 39 2 56 2c22 0 50 -5 50 -34c0 -14 -10 -24 -18 -28c-2 -1 -2 -3 0 -7c10 -21 18 -35 25 -40c4 -3 6 -5 9 -6c2 0 2 -6 0 -7c-5 -1 -9 -1 -14 -1c-16 0 -28 6 -37 21c-5 8 -9 16 -14 25c-2 4 -5 6 -9 6
c-5 0 -6 -3 -6 -5v-14c0 -15 0 -19 14 -21l3 -1c2 -1 2 -9 0 -10c-10 0 -18 1 -30 1c-11 0 -20 -1 -29 -1c-3 1 -3 9 -1 10l4 1c11 3 11 5 11 21zM146 590v-30c0 -7 1 -7 12 -7c16 0 20 12 20 20c0 16 -8 25 -19 25c-12 0 -13 -2 -13 -8zM160 677c72 0 130 -57 130 -127
s-58 -127 -130 -127s-130 57 -130 127s58 127 130 127zM160 655c-54 0 -99 -46 -99 -105c0 -58 45 -105 99 -105s99 47 99 105c0 59 -45 105 -99 105z" />
    <glyph glyph-name="minus" unicode="&#x2212;" horiz-adv-x="500" 
d="M443 230v-49h-385v49h385z" />
    <glyph glyph-name="eth" unicode="&#xf0;" horiz-adv-x="484" 
d="M121 204c0 -86 38 -188 125 -188c92 0 123 98 123 190c0 65 -9 104 -23 130c-17 32 -57 42 -96 42c-75 0 -129 -71 -129 -174zM436 632l-104 -54c83 -88 117 -214 117 -323c0 -166 -76 -269 -215 -269c-112 0 -199 75 -199 204c0 121 102 218 219 218c23 0 63 -2 97 -21
c-10 50 -36 114 -74 162l-131 -68c-12 5 -18 18 -14 33l124 65c-46 52 -116 106 -189 113c-5 7 -4 18 3 23c86 -4 176 -49 238 -109l112 58c14 -3 21 -18 16 -32z" />
    <glyph glyph-name="multiply" unicode="&#xd7;" horiz-adv-x="500" 
d="M436 349l-148 -150l148 -149l-37 -39l-149 150l-148 -150l-37 39l147 149l-147 147l37 39l148 -148l149 150z" />
    <glyph glyph-name="threesuperior" unicode="&#xb3;" 
d="M254 427c0 44 -23 89 -83 89c-32 0 -56 -14 -72 -29c-10 5 -17 14 -13 27c24 10 79 33 106 51c16 11 31 30 31 56c0 35 -25 53 -53 53c-32 0 -62 -21 -85 -58c-9 -1 -15 4 -17 11c25 50 73 81 129 81c58 0 96 -34 96 -71c0 -29 -15 -53 -73 -80c-5 -6 0 -10 8 -10
c51 0 98 -35 98 -95c0 -45 -23 -89 -69 -123c-53 -39 -111 -53 -144 -53s-71 9 -71 39c0 18 14 32 33 32c15 0 26 -15 33 -26s17 -18 32 -18c40 0 114 43 114 124z" />
    <glyph glyph-name="copyright" unicode="&#xa9;" horiz-adv-x="790" 
d="M280 334c0 -105 60 -175 149 -175c58 0 98 38 123 95c6 5 16 4 20 -3c-2 -26 -15 -75 -27 -96c-19 -6 -74 -23 -122 -23c-148 0 -218 99 -218 196c0 120 98 201 224 201c55 0 106 -15 121 -16c5 -30 7 -56 12 -93c-4 -7 -16 -8 -21 -3c-18 57 -58 85 -118 85
c-95 0 -143 -76 -143 -168zM395 -16c-201 0 -350 155 -350 346s149 346 350 346s350 -155 350 -346s-149 -346 -350 -346zM102 331c0 -173 127 -308 293 -308s293 135 293 308c0 172 -127 306 -293 306s-293 -134 -293 -306z" />
    <glyph glyph-name="Aacute" unicode="&#xc1;" horiz-adv-x="623" 
d="M451 96l-44 136c-7 22 -11 25 -41 25h-151c-25 0 -31 -3 -38 -24l-35 -105c-15 -45 -22 -72 -22 -83c0 -12 5 -18 29 -20l33 -3c7 -5 7 -21 -2 -25c-26 2 -57 2 -104 3c-33 0 -69 -2 -96 -3c-6 4 -8 20 -2 25l33 3c24 2 46 13 60 49c18 46 46 111 88 223l102 270
c14 36 20 55 17 71c24 7 41 25 52 38c6 0 13 -2 15 -9c13 -44 29 -90 44 -134l137 -402c29 -86 42 -101 85 -106l27 -3c7 -5 5 -21 0 -25c-41 2 -76 3 -121 3c-48 0 -86 -2 -115 -3c-8 4 -9 20 -2 25l29 3c21 2 35 8 35 18c0 11 -5 29 -13 53zM272 495l-63 -174
c-8 -23 -7 -24 21 -24h123c29 0 31 4 22 31l-54 163c-8 24 -17 51 -23 63h-2c-3 -5 -13 -29 -24 -59zM433 773l-167 -72c-7 2 -13 13 -10 24l141 115c12 8 21 13 27 13c7 0 20 -7 28 -23c10 -19 10 -33 7 -41c-4 -5 -11 -10 -26 -16z" />
    <glyph glyph-name="Acircumflex" unicode="&#xc2;" horiz-adv-x="623" 
d="M451 96l-44 136c-7 22 -11 25 -41 25h-151c-25 0 -31 -3 -38 -24l-35 -105c-15 -45 -22 -72 -22 -83c0 -12 5 -18 29 -20l33 -3c7 -5 7 -21 -2 -25c-26 2 -57 2 -104 3c-33 0 -69 -2 -96 -3c-6 4 -8 20 -2 25l33 3c24 2 46 13 60 49c18 46 46 111 88 223l102 270
c14 36 20 55 17 71c24 7 41 25 52 38c6 0 13 -2 15 -9c13 -44 29 -90 44 -134l137 -402c29 -86 42 -101 85 -106l27 -3c7 -5 5 -21 0 -25c-41 2 -76 3 -121 3c-48 0 -86 -2 -115 -3c-8 4 -9 20 -2 25l29 3c21 2 35 8 35 18c0 11 -5 29 -13 53zM272 495l-63 -174
c-8 -23 -7 -24 21 -24h123c29 0 31 4 22 31l-54 163c-8 24 -17 51 -23 63h-2c-3 -5 -13 -29 -24 -59zM182 717l122 115c14 14 28 13 42 0l122 -115c0 -9 -6 -19 -12 -20l-116 59c-14 7 -18 7 -32 0l-113 -59c-9 0 -13 11 -13 20z" />
    <glyph glyph-name="Adieresis" unicode="&#xc4;" horiz-adv-x="623" 
d="M451 96l-44 136c-7 22 -11 25 -41 25h-151c-25 0 -31 -3 -38 -24l-35 -105c-15 -45 -22 -72 -22 -83c0 -12 5 -18 29 -20l33 -3c7 -5 7 -21 -2 -25c-26 2 -57 2 -104 3c-33 0 -69 -2 -96 -3c-6 4 -8 20 -2 25l33 3c24 2 46 13 60 49c18 46 46 111 88 223l102 270
c14 36 20 55 17 71c24 7 41 25 52 38c6 0 13 -2 15 -9c13 -44 29 -90 44 -134l137 -402c29 -86 42 -101 85 -106l27 -3c7 -5 5 -21 0 -25c-41 2 -76 3 -121 3c-48 0 -86 -2 -115 -3c-8 4 -9 20 -2 25l29 3c21 2 35 8 35 18c0 11 -5 29 -13 53zM272 495l-63 -174
c-8 -23 -7 -24 21 -24h123c29 0 31 4 22 31l-54 163c-8 24 -17 51 -23 63h-2c-3 -5 -13 -29 -24 -59zM224 695c-31 0 -49 17 -49 51c-3 29 18 56 49 56s51 -28 51 -54c0 -29 -20 -53 -51 -53zM420 695c-30 0 -51 17 -52 51c0 29 21 56 52 56s48 -28 48 -54
c0 -29 -17 -53 -48 -53z" />
    <glyph glyph-name="Agrave" unicode="&#xc0;" horiz-adv-x="623" 
d="M451 96l-44 136c-7 22 -11 25 -41 25h-151c-25 0 -31 -3 -38 -24l-35 -105c-15 -45 -22 -72 -22 -83c0 -12 5 -18 29 -20l33 -3c7 -5 7 -21 -2 -25c-26 2 -57 2 -104 3c-33 0 -69 -2 -96 -3c-6 4 -8 20 -2 25l33 3c24 2 46 13 60 49c18 46 46 111 88 223l102 270
c14 36 20 55 17 71c24 7 41 25 52 38c6 0 13 -2 15 -9c13 -44 29 -90 44 -134l137 -402c29 -86 42 -101 85 -106l27 -3c7 -5 5 -21 0 -25c-41 2 -76 3 -121 3c-48 0 -86 -2 -115 -3c-8 4 -9 20 -2 25l29 3c21 2 35 8 35 18c0 11 -5 29 -13 53zM272 495l-63 -174
c-8 -23 -7 -24 21 -24h123c29 0 31 4 22 31l-54 163c-8 24 -17 51 -23 63h-2c-3 -5 -13 -29 -24 -59zM359 706l-167 72c-14 6 -22 11 -25 16c-4 8 -4 22 8 40c11 17 19 24 26 24c6 0 15 -5 27 -13l141 -115c3 -11 -3 -22 -10 -24z" />
    <glyph glyph-name="Aring" unicode="&#xc5;" horiz-adv-x="623" 
d="M451 96l-44 136c-7 22 -11 25 -41 25h-151c-25 0 -31 -3 -38 -24l-35 -105c-15 -45 -22 -72 -22 -83c0 -12 5 -18 29 -20l33 -3c7 -5 7 -21 -2 -25c-26 2 -57 2 -104 3c-33 0 -69 -2 -96 -3c-6 4 -8 20 -2 25l33 3c24 2 46 13 60 49c18 46 46 111 88 223l102 270
c14 36 20 55 17 71c24 7 41 25 52 38c6 0 13 -2 15 -9c13 -44 29 -90 44 -134l137 -402c29 -86 42 -101 85 -106l27 -3c7 -5 5 -21 0 -25c-41 2 -76 3 -121 3c-48 0 -86 -2 -115 -3c-8 4 -9 20 -2 25l29 3c21 2 35 8 35 18c0 11 -5 29 -13 53zM272 495l-63 -174
c-8 -23 -7 -24 21 -24h123c29 0 31 4 22 31l-54 163c-8 24 -17 51 -23 63h-2c-3 -5 -13 -29 -24 -59zM316 868c50 0 85 -39 85 -81c0 -43 -35 -81 -85 -81s-85 38 -85 81c0 42 35 81 85 81zM271 787c0 -31 20 -53 45 -53c26 0 45 22 45 53c0 30 -19 52 -45 52
c-25 0 -45 -22 -45 -52z" />
    <glyph glyph-name="Atilde" unicode="&#xc3;" horiz-adv-x="623" 
d="M451 96l-44 136c-7 22 -11 25 -41 25h-151c-25 0 -31 -3 -38 -24l-35 -105c-15 -45 -22 -72 -22 -83c0 -12 5 -18 29 -20l33 -3c7 -5 7 -21 -2 -25c-26 2 -57 2 -104 3c-33 0 -69 -2 -96 -3c-6 4 -8 20 -2 25l33 3c24 2 46 13 60 49c18 46 46 111 88 223l102 270
c14 36 20 55 17 71c24 7 41 25 52 38c6 0 13 -2 15 -9c13 -44 29 -90 44 -134l137 -402c29 -86 42 -101 85 -106l27 -3c7 -5 5 -21 0 -25c-41 2 -76 3 -121 3c-48 0 -86 -2 -115 -3c-8 4 -9 20 -2 25l29 3c21 2 35 8 35 18c0 11 -5 29 -13 53zM272 495l-63 -174
c-8 -23 -7 -24 21 -24h123c29 0 31 4 22 31l-54 163c-8 24 -17 51 -23 63h-2c-3 -5 -13 -29 -24 -59zM283 788h61c43 0 55 6 80 41c6 4 14 3 17 -5c-6 -27 -24 -64 -39 -78s-29 -16 -51 -16h-56c-47 0 -64 -16 -84 -53c-6 -4 -17 -3 -20 4c3 17 22 69 39 84
c16 18 30 23 53 23z" />
    <glyph glyph-name="Ccedilla" unicode="&#xc7;" horiz-adv-x="696" 
d="M364 -102l54 87c-83 1 -163 19 -232 66c-80 54 -142 146 -142 275c0 111 50 206 126 265c73 57 166 85 270 85c54 0 130 -11 177 -24c12 -3 19 -5 28 -4c1 -23 6 -86 14 -147c-5 -7 -20 -8 -27 -2c-15 68 -60 146 -205 146c-153 0 -283 -97 -283 -304
c0 -210 133 -326 297 -326c129 0 186 84 209 143c7 5 22 3 26 -4c-7 -52 -33 -118 -48 -137c-12 -2 -24 -6 -35 -10c-20 -7 -82 -21 -142 -22l-27 -43c-4 -7 -3 -14 8 -22c25 -17 43 -39 43 -66c0 -47 -48 -82 -96 -82c-35 0 -54 14 -54 33c0 10 9 24 23 24
c18 0 36 -27 49 -27c11 0 25 7 25 29c0 24 -25 49 -58 62v5z" />
    <glyph glyph-name="Eacute" unicode="&#xc9;" horiz-adv-x="584" 
d="M128 150v360c0 104 -2 119 -61 126l-16 2c-6 4 -4 22 2 25c43 -2 77 -3 118 -3h188c64 0 123 0 135 3c6 -17 12 -89 16 -133c-4 -6 -20 -8 -25 -2c-15 47 -24 82 -76 95c-21 5 -53 6 -97 6h-72c-30 0 -30 -2 -30 -40v-200c0 -28 3 -28 33 -28h58c42 0 73 2 85 6
s19 10 24 35l8 41c5 6 22 6 26 -1c0 -24 -4 -63 -4 -101c0 -36 4 -74 4 -96c-4 -7 -21 -7 -26 -1l-9 39c-4 18 -11 33 -31 38c-14 4 -38 5 -77 5h-58c-30 0 -33 -1 -33 -27v-141c0 -53 3 -87 19 -104c12 -12 33 -23 121 -23c77 0 106 4 128 15c18 10 45 45 71 97
c7 5 21 2 25 -7c-7 -35 -32 -112 -45 -139c-90 2 -179 3 -268 3h-90c-43 0 -77 -1 -136 -3c-6 3 -8 19 -2 25l33 3c57 5 62 20 62 125zM423 778l-167 -72c-7 2 -13 13 -10 24l141 115c12 8 21 13 27 13c7 0 20 -7 28 -23c10 -19 10 -33 7 -41c-4 -5 -11 -10 -26 -16z" />
    <glyph glyph-name="Ecircumflex" unicode="&#xca;" horiz-adv-x="584" 
d="M128 150v360c0 104 -2 119 -61 126l-16 2c-6 4 -4 22 2 25c43 -2 77 -3 118 -3h188c64 0 123 0 135 3c6 -17 12 -89 16 -133c-4 -6 -20 -8 -25 -2c-15 47 -24 82 -76 95c-21 5 -53 6 -97 6h-72c-30 0 -30 -2 -30 -40v-200c0 -28 3 -28 33 -28h58c42 0 73 2 85 6
s19 10 24 35l8 41c5 6 22 6 26 -1c0 -24 -4 -63 -4 -101c0 -36 4 -74 4 -96c-4 -7 -21 -7 -26 -1l-9 39c-4 18 -11 33 -31 38c-14 4 -38 5 -77 5h-58c-30 0 -33 -1 -33 -27v-141c0 -53 3 -87 19 -104c12 -12 33 -23 121 -23c77 0 106 4 128 15c18 10 45 45 71 97
c7 5 21 2 25 -7c-7 -35 -32 -112 -45 -139c-90 2 -179 3 -268 3h-90c-43 0 -77 -1 -136 -3c-6 3 -8 19 -2 25l33 3c57 5 62 20 62 125zM156 727l122 115c14 14 28 13 42 0l122 -115c0 -9 -6 -19 -12 -20l-116 59c-14 7 -18 7 -32 0l-113 -59c-9 0 -13 11 -13 20z" />
    <glyph glyph-name="Edieresis" unicode="&#xcb;" horiz-adv-x="584" 
d="M128 150v360c0 104 -2 119 -61 126l-16 2c-6 4 -4 22 2 25c43 -2 77 -3 118 -3h188c64 0 123 0 135 3c6 -17 12 -89 16 -133c-4 -6 -20 -8 -25 -2c-15 47 -24 82 -76 95c-21 5 -53 6 -97 6h-72c-30 0 -30 -2 -30 -40v-200c0 -28 3 -28 33 -28h58c42 0 73 2 85 6
s19 10 24 35l8 41c5 6 22 6 26 -1c0 -24 -4 -63 -4 -101c0 -36 4 -74 4 -96c-4 -7 -21 -7 -26 -1l-9 39c-4 18 -11 33 -31 38c-14 4 -38 5 -77 5h-58c-30 0 -33 -1 -33 -27v-141c0 -53 3 -87 19 -104c12 -12 33 -23 121 -23c77 0 106 4 128 15c18 10 45 45 71 97
c7 5 21 2 25 -7c-7 -35 -32 -112 -45 -139c-90 2 -179 3 -268 3h-90c-43 0 -77 -1 -136 -3c-6 3 -8 19 -2 25l33 3c57 5 62 20 62 125zM196 709c-31 0 -49 17 -49 51c-3 29 18 56 49 56s51 -28 51 -54c0 -29 -20 -53 -51 -53zM394 709c-30 0 -51 17 -52 51c0 29 21 56 52 56
s48 -28 48 -54c0 -29 -17 -53 -48 -53z" />
    <glyph glyph-name="Egrave" unicode="&#xc8;" horiz-adv-x="584" 
d="M128 150v360c0 104 -2 119 -61 126l-16 2c-6 4 -4 22 2 25c43 -2 77 -3 118 -3h188c64 0 123 0 135 3c6 -17 12 -89 16 -133c-4 -6 -20 -8 -25 -2c-15 47 -24 82 -76 95c-21 5 -53 6 -97 6h-72c-30 0 -30 -2 -30 -40v-200c0 -28 3 -28 33 -28h58c42 0 73 2 85 6
s19 10 24 35l8 41c5 6 22 6 26 -1c0 -24 -4 -63 -4 -101c0 -36 4 -74 4 -96c-4 -7 -21 -7 -26 -1l-9 39c-4 18 -11 33 -31 38c-14 4 -38 5 -77 5h-58c-30 0 -33 -1 -33 -27v-141c0 -53 3 -87 19 -104c12 -12 33 -23 121 -23c77 0 106 4 128 15c18 10 45 45 71 97
c7 5 21 2 25 -7c-7 -35 -32 -112 -45 -139c-90 2 -179 3 -268 3h-90c-43 0 -77 -1 -136 -3c-6 3 -8 19 -2 25l33 3c57 5 62 20 62 125zM334 705l-167 72c-14 6 -22 11 -25 16c-4 8 -4 22 6 41c8 16 21 23 28 23c6 0 15 -5 27 -13l141 -115c3 -11 -3 -22 -10 -24z" />
    <glyph glyph-name="Iacute" unicode="&#xcd;" horiz-adv-x="338" 
d="M128 152v356c0 106 -2 123 -61 128l-25 2c-6 4 -4 22 2 25c50 -2 84 -3 126 -3c40 0 74 1 124 3c6 -3 8 -21 2 -25l-25 -2c-59 -5 -61 -22 -61 -128v-356c0 -106 2 -120 61 -127l25 -3c6 -4 4 -22 -2 -25c-50 2 -84 3 -124 3c-42 0 -76 -1 -126 -3c-6 3 -8 19 -2 25l25 3
c59 7 61 21 61 127zM300 778l-167 -72c-7 2 -13 13 -10 24l141 114c12 9 21 14 27 14c7 0 20 -7 28 -23c10 -19 10 -33 7 -41c-4 -5 -11 -10 -26 -16z" />
    <glyph glyph-name="Icircumflex" unicode="&#xce;" horiz-adv-x="338" 
d="M128 152v356c0 106 -2 123 -61 128l-25 2c-6 4 -4 22 2 25c50 -2 84 -3 126 -3c40 0 74 1 124 3c6 -3 8 -21 2 -25l-25 -2c-59 -5 -61 -22 -61 -128v-356c0 -106 2 -120 61 -127l25 -3c6 -4 4 -22 -2 -25c-50 2 -84 3 -124 3c-42 0 -76 -1 -126 -3c-6 3 -8 19 -2 25l25 3
c59 7 61 21 61 127zM32 727l122 115c14 14 28 13 42 0l122 -115c0 -9 -6 -19 -12 -20l-116 59c-14 7 -18 7 -32 0l-113 -59c-9 0 -13 11 -13 20z" />
    <glyph glyph-name="Idieresis" unicode="&#xcf;" horiz-adv-x="338" 
d="M128 152v356c0 106 -2 123 -61 128l-25 2c-6 4 -4 22 2 25c50 -2 84 -3 126 -3c40 0 74 1 124 3c6 -3 8 -21 2 -25l-25 -2c-59 -5 -61 -22 -61 -128v-356c0 -106 2 -120 61 -127l25 -3c6 -4 4 -22 -2 -25c-50 2 -84 3 -124 3c-42 0 -76 -1 -126 -3c-6 3 -8 19 -2 25l25 3
c59 7 61 21 61 127zM84 705c-31 0 -49 17 -49 51c-3 29 18 56 49 56s51 -28 51 -54c0 -29 -20 -53 -51 -53zM270 705c-30 0 -51 17 -52 51c0 29 21 56 52 56s48 -28 48 -54c0 -29 -17 -53 -48 -53z" />
    <glyph glyph-name="Igrave" unicode="&#xcc;" horiz-adv-x="338" 
d="M128 152v356c0 106 -2 123 -61 128l-25 2c-6 4 -4 22 2 25c50 -2 84 -3 126 -3c40 0 74 1 124 3c6 -3 8 -21 2 -25l-25 -2c-59 -5 -61 -22 -61 -128v-356c0 -106 2 -120 61 -127l25 -3c6 -4 4 -22 -2 -25c-50 2 -84 3 -124 3c-42 0 -76 -1 -126 -3c-6 3 -8 19 -2 25l25 3
c59 7 61 21 61 127zM206 706l-167 72c-15 6 -22 11 -26 16c-3 8 -3 22 7 41c8 16 21 23 28 23c6 0 15 -5 27 -13l141 -115c3 -11 -3 -22 -10 -24z" />
    <glyph glyph-name="Ntilde" unicode="&#xd1;" horiz-adv-x="783" 
d="M666 409v-239c0 -30 0 -149 3 -175c-2 -6 -8 -11 -19 -11c-12 17 -41 52 -128 151l-232 264c-27 31 -95 113 -116 135h-2c-4 -12 -5 -35 -5 -65v-218c0 -47 1 -177 18 -207c6 -11 26 -17 51 -19l31 -3c6 -8 5 -20 -2 -25c-45 2 -80 3 -117 3c-42 0 -69 -1 -104 -3
c-7 5 -8 19 -2 25l27 3c23 3 39 9 44 20c14 36 13 158 13 206v289c0 28 -1 49 -22 72c-14 14 -38 21 -62 24l-17 2c-6 6 -6 21 2 25c42 -3 95 -3 113 -3c16 0 33 1 46 3c20 -51 138 -183 171 -220l97 -109c69 -77 118 -133 165 -181h2c4 5 4 21 4 42v214
c0 47 -1 177 -20 207c-6 9 -22 15 -62 20l-17 2c-7 6 -6 22 2 25c46 -2 80 -3 118 -3c43 0 69 1 103 3c8 -5 8 -19 2 -25l-14 -2c-32 -5 -52 -13 -56 -21c-17 -36 -15 -160 -15 -206zM374 798h63c45 0 57 5 83 40c6 4 15 3 18 -5c-7 -27 -27 -63 -41 -77
c-15 -14 -30 -16 -53 -16h-58c-48 0 -66 -16 -87 -52c-6 -5 -17 -4 -21 4c4 17 23 68 41 83c16 18 31 23 55 23z" />
    <glyph glyph-name="Oacute" unicode="&#xd3;" horiz-adv-x="795" 
d="M402 -16c-222 0 -356 159 -356 339c0 200 150 353 356 353c231 0 347 -167 347 -343c0 -202 -154 -349 -347 -349zM415 15c120 0 234 90 234 287c0 165 -73 343 -264 343c-104 0 -239 -71 -239 -290c0 -148 72 -340 269 -340zM529 783l-167 -72c-7 2 -13 13 -10 24
l141 115c12 8 21 13 27 13c7 0 20 -7 28 -23c10 -19 10 -33 7 -41c-4 -5 -11 -10 -26 -16z" />
    <glyph glyph-name="Ocircumflex" unicode="&#xd4;" horiz-adv-x="795" 
d="M402 -16c-222 0 -356 159 -356 339c0 200 150 353 356 353c231 0 347 -167 347 -343c0 -202 -154 -349 -347 -349zM415 15c120 0 234 90 234 287c0 165 -73 343 -264 343c-104 0 -239 -71 -239 -290c0 -148 72 -340 269 -340zM261 727l122 111c15 13 28 13 42 0l122 -111
c0 -9 -6 -19 -12 -20l-116 58c-14 7 -18 7 -32 0l-113 -58c-9 0 -13 11 -13 20z" />
    <glyph glyph-name="Odieresis" unicode="&#xd6;" horiz-adv-x="795" 
d="M402 -16c-222 0 -356 159 -356 339c0 200 150 353 356 353c231 0 347 -167 347 -343c0 -202 -154 -349 -347 -349zM415 15c120 0 234 90 234 287c0 165 -73 343 -264 343c-104 0 -239 -71 -239 -290c0 -148 72 -340 269 -340zM305 715c-31 0 -49 17 -49 51
c-3 29 18 56 49 56s51 -28 51 -54c0 -29 -20 -53 -51 -53zM496 715c-30 0 -51 17 -52 51c0 29 21 56 52 56s48 -28 48 -54c0 -29 -17 -53 -48 -53z" />
    <glyph glyph-name="Ograve" unicode="&#xd2;" horiz-adv-x="795" 
d="M402 -16c-222 0 -356 159 -356 339c0 200 150 353 356 353c231 0 347 -167 347 -343c0 -202 -154 -349 -347 -349zM415 15c120 0 234 90 234 287c0 165 -73 343 -264 343c-104 0 -239 -71 -239 -290c0 -148 72 -340 269 -340zM452 706l-167 72c-14 6 -22 11 -25 16
c-4 8 -6 23 6 41c11 16 21 23 28 23c6 0 15 -5 27 -13l141 -115c3 -11 -3 -22 -10 -24z" />
    <glyph glyph-name="Otilde" unicode="&#xd5;" horiz-adv-x="795" 
d="M402 -16c-222 0 -356 159 -356 339c0 200 150 353 356 353c231 0 347 -167 347 -343c0 -202 -154 -349 -347 -349zM415 15c120 0 234 90 234 287c0 165 -73 343 -264 343c-104 0 -239 -71 -239 -290c0 -148 72 -340 269 -340zM368 806h63c45 0 57 5 83 41c6 5 15 4 18 -4
c-7 -29 -27 -66 -41 -81c-15 -15 -30 -17 -53 -17h-58c-48 0 -66 -16 -87 -55c-6 -4 -17 -3 -21 4c4 18 23 72 41 87c16 19 31 25 55 25z" />
    <glyph glyph-name="Scaron" unicode="&#x160;" horiz-adv-x="489" 
d="M437 169c0 -110 -83 -185 -213 -185c-84 0 -137 26 -156 37c-12 22 -25 93 -27 140c5 7 20 9 24 3c15 -51 56 -149 172 -149c84 0 125 55 125 115c0 44 -9 93 -82 140l-95 62c-50 33 -108 90 -108 172c0 95 74 172 204 172c31 0 67 -6 93 -13c13 -4 27 -6 35 -6
c9 -24 18 -80 18 -122c-4 -6 -20 -9 -25 -3c-13 48 -40 113 -136 113c-98 0 -119 -65 -119 -111c0 -58 48 -100 85 -123l80 -50c63 -39 125 -97 125 -192zM238 721l-123 113c0 9 6 20 14 20l114 -58c14 -7 17 -8 32 0l116 58c6 -1 11 -11 11 -20l-122 -113
c-14 -13 -28 -12 -42 0z" />
    <glyph glyph-name="Uacute" unicode="&#xda;" horiz-adv-x="746" 
d="M605 294v115c0 62 -2 177 -19 207c-7 12 -25 19 -50 21l-25 2c-6 7 -4 20 2 24c38 -2 75 -3 114 -3c42 0 69 1 105 3c8 -5 7 -18 2 -24l-24 -2c-25 -2 -44 -11 -50 -24c-14 -33 -14 -148 -14 -204v-113c0 -87 -14 -179 -70 -239c-43 -47 -117 -73 -191 -73
c-69 0 -138 13 -187 55c-53 44 -78 117 -78 236v236c0 104 -2 121 -60 126l-25 2c-6 4 -4 21 2 24c50 -2 84 -3 124 -3c41 0 74 1 123 3c6 -3 8 -20 2 -24l-24 -2c-58 -5 -60 -22 -60 -126v-216c0 -161 50 -267 203 -267c145 0 200 114 200 266zM520 778l-167 -72
c-7 2 -13 13 -10 24l141 115c12 8 21 13 27 13c7 0 20 -7 28 -23c10 -19 10 -33 7 -41c-4 -5 -11 -10 -26 -16z" />
    <glyph glyph-name="Ucircumflex" unicode="&#xdb;" horiz-adv-x="746" 
d="M605 294v115c0 62 -2 177 -19 207c-7 12 -25 19 -50 21l-25 2c-6 7 -4 20 2 24c38 -2 75 -3 114 -3c42 0 69 1 105 3c8 -5 7 -18 2 -24l-24 -2c-25 -2 -44 -11 -50 -24c-14 -33 -14 -148 -14 -204v-113c0 -87 -14 -179 -70 -239c-43 -47 -117 -73 -191 -73
c-69 0 -138 13 -187 55c-53 44 -78 117 -78 236v236c0 104 -2 121 -60 126l-25 2c-6 4 -4 21 2 24c50 -2 84 -3 124 -3c41 0 74 1 123 3c6 -3 8 -20 2 -24l-24 -2c-58 -5 -60 -22 -60 -126v-216c0 -161 50 -267 203 -267c145 0 200 114 200 266zM261 727l122 111
c15 13 28 13 42 0l122 -111c0 -9 -6 -19 -12 -20l-116 58c-14 7 -18 7 -32 0l-113 -58c-9 0 -13 11 -13 20z" />
    <glyph glyph-name="Udieresis" unicode="&#xdc;" horiz-adv-x="746" 
d="M605 294v115c0 62 -2 177 -19 207c-7 12 -25 19 -50 21l-25 2c-6 7 -4 20 2 24c38 -2 75 -3 114 -3c42 0 69 1 105 3c8 -5 7 -18 2 -24l-24 -2c-25 -2 -44 -11 -50 -24c-14 -33 -14 -148 -14 -204v-113c0 -87 -14 -179 -70 -239c-43 -47 -117 -73 -191 -73
c-69 0 -138 13 -187 55c-53 44 -78 117 -78 236v236c0 104 -2 121 -60 126l-25 2c-6 4 -4 21 2 24c50 -2 84 -3 124 -3c41 0 74 1 123 3c6 -3 8 -20 2 -24l-24 -2c-58 -5 -60 -22 -60 -126v-216c0 -161 50 -267 203 -267c145 0 200 114 200 266zM300 705
c-31 0 -49 17 -49 51c-3 29 18 56 49 56s51 -28 51 -54c0 -29 -20 -53 -51 -53zM496 705c-30 0 -51 17 -52 51c0 29 21 56 52 56s48 -28 48 -54c0 -29 -17 -53 -48 -53z" />
    <glyph glyph-name="Ugrave" unicode="&#xd9;" horiz-adv-x="746" 
d="M605 294v115c0 62 -2 177 -19 207c-7 12 -25 19 -50 21l-25 2c-6 7 -4 20 2 24c38 -2 75 -3 114 -3c42 0 69 1 105 3c8 -5 7 -18 2 -24l-24 -2c-25 -2 -44 -11 -50 -24c-14 -33 -14 -148 -14 -204v-113c0 -87 -14 -179 -70 -239c-43 -47 -117 -73 -191 -73
c-69 0 -138 13 -187 55c-53 44 -78 117 -78 236v236c0 104 -2 121 -60 126l-25 2c-6 4 -4 21 2 24c50 -2 84 -3 124 -3c41 0 74 1 123 3c6 -3 8 -20 2 -24l-24 -2c-58 -5 -60 -22 -60 -126v-216c0 -161 50 -267 203 -267c145 0 200 114 200 266zM435 706l-167 72
c-14 6 -22 11 -25 16c-4 8 -4 22 6 41c8 16 21 23 28 23c6 0 15 -5 27 -13l141 -115c3 -11 -3 -22 -10 -24z" />
    <glyph glyph-name="Yacute" unicode="&#xdd;" horiz-adv-x="574" 
d="M336 204v-52c0 -107 6 -123 60 -127l38 -3c6 -6 4 -22 -2 -25c-62 2 -96 3 -136 3c-42 0 -78 -1 -131 -3c-6 3 -8 19 -2 25l31 3c58 6 60 20 60 127v51c0 55 -3 68 -32 124l-118 230c-34 66 -49 71 -79 76l-28 5c-6 7 -5 21 2 25c32 -2 68 -3 116 -3c46 0 82 1 107 3
c9 -3 9 -19 3 -25l-13 -2c-35 -5 -42 -10 -42 -18c0 -10 26 -67 31 -77c37 -74 74 -153 113 -222c31 53 64 111 94 169c28 52 65 120 65 132c0 6 -18 13 -42 16l-18 2c-7 7 -6 21 2 25c36 -2 65 -3 96 -3s59 1 93 3c8 -5 9 -19 2 -25l-28 -5c-52 -9 -82 -72 -132 -158
l-63 -109c-44 -76 -47 -85 -47 -162zM433 778l-167 -72c-7 2 -13 13 -10 24l141 115c12 8 21 13 27 13c7 0 20 -7 28 -23c10 -19 10 -33 7 -41c-4 -5 -11 -10 -26 -16z" />
    <glyph glyph-name="Ydieresis" unicode="&#x178;" horiz-adv-x="574" 
d="M336 204v-52c0 -107 6 -123 60 -127l38 -3c6 -6 4 -22 -2 -25c-62 2 -96 3 -136 3c-42 0 -78 -1 -131 -3c-6 3 -8 19 -2 25l31 3c58 6 60 20 60 127v51c0 55 -3 68 -32 124l-118 230c-34 66 -49 71 -79 76l-28 5c-6 7 -5 21 2 25c32 -2 68 -3 116 -3c46 0 82 1 107 3
c9 -3 9 -19 3 -25l-13 -2c-35 -5 -42 -10 -42 -18c0 -10 26 -67 31 -77c37 -74 74 -153 113 -222c31 53 64 111 94 169c28 52 65 120 65 132c0 6 -18 13 -42 16l-18 2c-7 7 -6 21 2 25c36 -2 65 -3 96 -3s59 1 93 3c8 -5 9 -19 2 -25l-28 -5c-52 -9 -82 -72 -132 -158
l-63 -109c-44 -76 -47 -85 -47 -162zM219 710c-31 0 -49 17 -49 51c-3 29 18 56 49 56s51 -28 51 -54c0 -29 -20 -53 -51 -53zM405 710c-30 0 -51 17 -52 51c0 29 21 56 52 56s48 -28 48 -54c0 -29 -17 -53 -48 -53z" />
    <glyph glyph-name="Zcaron" unicode="&#x17d;" horiz-adv-x="641" 
d="M136 145l216 307c52 74 81 112 97 142c7 12 12 20 12 27c0 5 -10 8 -36 8h-149c-80 0 -125 -7 -149 -33c-21 -23 -36 -51 -44 -68c-9 -4 -21 -1 -25 7c12 35 29 95 41 150c4 3 12 3 17 0c3 -24 18 -25 99 -25h264c72 0 104 1 115 3c4 -1 6 -5 6 -9
c-27 -23 -112 -139 -164 -214l-165 -238c-11 -16 -99 -140 -99 -155c0 -10 10 -12 28 -14c26 -2 78 -2 148 -2c64 0 147 2 185 23c29 16 53 53 70 92c9 3 22 2 25 -7c-9 -46 -29 -117 -45 -142c-55 2 -112 3 -182 3h-257c-53 0 -89 -2 -112 -3c-4 2 -5 7 -5 12
c21 20 78 91 109 136zM321 713l-124 113c0 9 7 20 15 20l114 -62c13 -7 17 -8 32 0l115 62c7 -1 11 -11 11 -20l-122 -113c-14 -13 -27 -12 -41 0z" />
    <glyph glyph-name="aacute" unicode="&#xe1;" horiz-adv-x="404" 
d="M118 164l119 43c15 5 17 14 17 29l1 46c1 37 -11 87 -73 87c-28 0 -62 -14 -64 -45c-1 -16 -2 -28 -10 -34c-15 -12 -42 -19 -57 -19c-9 0 -14 5 -14 14c0 52 113 123 186 123c72 0 107 -42 104 -117l-6 -174c-2 -46 7 -87 46 -87c10 0 19 3 25 6c5 3 10 7 13 7
c4 0 7 -6 7 -13c0 -5 -35 -44 -84 -44c-24 0 -48 9 -65 31c-4 6 -10 14 -16 14c-7 0 -19 -9 -39 -20c-22 -12 -44 -25 -72 -25c-29 0 -53 8 -70 23c-19 17 -31 42 -31 70c0 39 19 62 83 85zM112 91c0 -17 12 -60 63 -60c20 0 51 15 61 25c12 12 12 26 13 47l2 59
c0 11 -4 13 -10 13s-23 -4 -41 -10c-59 -20 -88 -35 -88 -74zM317 591l-125 -130c-7 -1 -16 4 -17 11l86 163c6 11 14 24 24 24c7 0 19 -5 31 -15c10 -8 17 -18 17 -26c0 -6 -6 -17 -16 -27z" />
    <glyph glyph-name="acircumflex" unicode="&#xe2;" horiz-adv-x="404" 
d="M118 164l119 43c15 5 17 14 17 29l1 46c1 37 -11 87 -73 87c-28 0 -62 -14 -64 -45c-1 -16 -2 -28 -10 -34c-15 -12 -42 -19 -57 -19c-9 0 -14 5 -14 14c0 52 113 123 186 123c72 0 107 -42 104 -117l-6 -174c-2 -46 7 -87 46 -87c10 0 19 3 25 6c5 3 10 7 13 7
c4 0 7 -6 7 -13c0 -5 -35 -44 -84 -44c-24 0 -48 9 -65 31c-4 6 -10 14 -16 14c-7 0 -19 -9 -39 -20c-22 -12 -44 -25 -72 -25c-29 0 -53 8 -70 23c-19 17 -31 42 -31 70c0 39 19 62 83 85zM112 91c0 -17 12 -60 63 -60c20 0 51 15 61 25c12 12 12 26 13 47l2 59
c0 11 -4 13 -10 13s-23 -4 -41 -10c-59 -20 -88 -35 -88 -74zM282 455l-73 93c-12 15 -15 15 -27 0l-74 -93c-6 -2 -19 3 -20 9l90 172c11 20 24 20 35 0l91 -172c-1 -6 -17 -11 -22 -9z" />
    <glyph glyph-name="adieresis" unicode="&#xe4;" horiz-adv-x="404" 
d="M118 164l119 43c15 5 17 14 17 29l1 46c1 37 -11 87 -73 87c-28 0 -62 -14 -64 -45c-1 -16 -2 -28 -10 -34c-15 -12 -42 -19 -57 -19c-9 0 -14 5 -14 14c0 52 113 123 186 123c72 0 107 -42 104 -117l-6 -174c-2 -46 7 -87 46 -87c10 0 19 3 25 6c5 3 10 7 13 7
c4 0 7 -6 7 -13c0 -5 -35 -44 -84 -44c-24 0 -48 9 -65 31c-4 6 -10 14 -16 14c-7 0 -19 -9 -39 -20c-22 -12 -44 -25 -72 -25c-29 0 -53 8 -70 23c-19 17 -31 42 -31 70c0 39 19 62 83 85zM112 91c0 -17 12 -60 63 -60c20 0 51 15 61 25c12 12 12 26 13 47l2 59
c0 11 -4 13 -10 13s-23 -4 -41 -10c-59 -20 -88 -35 -88 -74zM108 502c-28 0 -48 18 -49 49c-1 29 20 52 49 52s50 -24 50 -48c0 -31 -21 -53 -50 -53zM283 502c-28 0 -50 19 -51 50c0 28 22 51 51 51s48 -24 48 -47c0 -31 -19 -54 -48 -54z" />
    <glyph glyph-name="agrave" unicode="&#xe0;" horiz-adv-x="404" 
d="M118 164l119 43c15 5 17 14 17 29l1 46c1 37 -11 87 -73 87c-28 0 -62 -14 -64 -45c-1 -16 -2 -28 -10 -34c-15 -12 -42 -19 -57 -19c-9 0 -14 5 -14 14c0 52 113 123 186 123c72 0 107 -42 104 -117l-6 -174c-2 -46 7 -87 46 -87c10 0 19 3 25 6c5 3 10 7 13 7
c4 0 7 -6 7 -13c0 -5 -35 -44 -84 -44c-24 0 -48 9 -65 31c-4 6 -10 14 -16 14c-7 0 -19 -9 -39 -20c-22 -12 -44 -25 -72 -25c-29 0 -53 8 -70 23c-19 17 -31 42 -31 70c0 39 19 62 83 85zM112 91c0 -17 12 -60 63 -60c20 0 51 15 61 25c12 12 12 26 13 47l2 59
c0 11 -4 13 -10 13s-23 -4 -41 -10c-59 -20 -88 -35 -88 -74zM155 639l82 -170c0 -9 -15 -13 -22 -12l-122 133c-12 13 -18 23 -18 31s7 16 20 26c14 12 28 16 35 16c11 0 19 -11 25 -24z" />
    <glyph glyph-name="aring" unicode="&#xe5;" horiz-adv-x="404" 
d="M118 164l119 43c15 5 17 14 17 29l1 46c1 37 -11 87 -73 87c-28 0 -62 -14 -64 -45c-1 -16 -2 -28 -10 -34c-15 -12 -42 -19 -57 -19c-9 0 -14 5 -14 14c0 52 113 123 186 123c72 0 107 -42 104 -117l-6 -174c-2 -46 7 -87 46 -87c10 0 19 3 25 6c5 3 10 7 13 7
c4 0 7 -6 7 -13c0 -5 -35 -44 -84 -44c-24 0 -48 9 -65 31c-4 6 -10 14 -16 14c-7 0 -19 -9 -39 -20c-22 -12 -44 -25 -72 -25c-29 0 -53 8 -70 23c-19 17 -31 42 -31 70c0 39 19 62 83 85zM112 91c0 -17 12 -60 63 -60c20 0 51 15 61 25c12 12 12 26 13 47l2 59
c0 11 -4 13 -10 13s-23 -4 -41 -10c-59 -20 -88 -35 -88 -74zM202 638c50 0 85 -39 85 -81c0 -43 -35 -81 -85 -81s-85 38 -85 81c0 42 35 81 85 81zM157 557c0 -31 20 -53 45 -53c26 0 45 22 45 53c0 30 -19 52 -45 52c-25 0 -45 -22 -45 -52z" />
    <glyph glyph-name="atilde" unicode="&#xe3;" horiz-adv-x="404" 
d="M118 164l119 43c15 5 17 14 17 29l1 46c1 37 -11 87 -73 87c-28 0 -62 -14 -64 -45c-1 -16 -2 -28 -10 -34c-15 -12 -42 -19 -57 -19c-9 0 -14 5 -14 14c0 52 113 123 186 123c72 0 107 -42 104 -117l-6 -174c-2 -46 7 -87 46 -87c10 0 19 3 25 6c5 3 10 7 13 7
c4 0 7 -6 7 -13c0 -5 -35 -44 -84 -44c-24 0 -48 9 -65 31c-4 6 -10 14 -16 14c-7 0 -19 -9 -39 -20c-22 -12 -44 -25 -72 -25c-29 0 -53 8 -70 23c-19 17 -31 42 -31 70c0 39 19 62 83 85zM112 91c0 -17 12 -60 63 -60c20 0 51 15 61 25c12 12 12 26 13 47l2 59
c0 11 -4 13 -10 13s-23 -4 -41 -10c-59 -20 -88 -35 -88 -74zM177 567h53c40 0 52 4 75 38c6 3 14 2 17 -6c-6 -25 -24 -57 -37 -71c-15 -13 -27 -16 -49 -16h-52c-44 0 -62 -16 -81 -51c-5 -4 -14 -2 -17 4c3 16 21 64 37 79c15 17 30 23 54 23z" />
    <glyph glyph-name="ccedilla" unicode="&#xe7;" horiz-adv-x="401" 
d="M184 -97l52 84c-1 -1 -3 -1 -5 -1c-53 0 -102 17 -137 51s-58 83 -58 148c0 108 76 223 242 223c23 0 62 -5 89 -17c8 -7 15 -23 15 -40c0 -18 -10 -37 -22 -37c-5 0 -10 2 -14 7c-22 27 -59 53 -100 53c-70 0 -138 -55 -138 -161c0 -78 54 -171 161 -171
c58 0 88 26 111 60c8 2 17 -5 18 -14c-27 -59 -79 -88 -128 -96l-29 -47c-4 -7 -3 -14 8 -21c24 -16 41 -37 41 -63c0 -45 -46 -78 -92 -78c-33 0 -51 13 -51 31c0 10 8 23 22 23c17 0 34 -26 46 -26c11 0 24 7 24 28c0 23 -24 47 -55 59v5z" />
    <glyph glyph-name="eacute" unicode="&#xe9;" horiz-adv-x="396" 
d="M315 256h-185c-26 0 -27 -2 -27 -27c0 -101 59 -187 166 -187c33 0 61 10 92 49c10 3 17 -3 18 -12c-33 -68 -105 -93 -157 -93c-65 0 -116 28 -145 66c-30 39 -42 86 -42 130c0 123 81 226 201 226c86 0 142 -59 142 -119c0 -14 -2 -22 -4 -26c-3 -6 -17 -7 -59 -7z
M121 286h71c74 0 96 4 104 10c3 2 6 6 6 19c0 28 -19 63 -77 63c-59 0 -110 -54 -111 -87c0 -2 0 -5 7 -5zM320 584l-125 -130c-7 -1 -16 4 -17 11l86 163c6 11 14 24 24 24c7 0 19 -5 31 -15c10 -8 17 -18 17 -26c0 -6 -6 -17 -16 -27z" />
    <glyph glyph-name="ecircumflex" unicode="&#xea;" horiz-adv-x="396" 
d="M315 256h-185c-26 0 -27 -2 -27 -27c0 -101 59 -187 166 -187c33 0 61 10 92 49c10 3 17 -3 18 -12c-33 -68 -105 -93 -157 -93c-65 0 -116 28 -145 66c-30 39 -42 86 -42 130c0 123 81 226 201 226c86 0 142 -59 142 -119c0 -14 -2 -22 -4 -26c-3 -6 -17 -7 -59 -7z
M121 286h71c74 0 96 4 104 10c3 2 6 6 6 19c0 28 -19 63 -77 63c-59 0 -110 -54 -111 -87c0 -2 0 -5 7 -5zM316 456l-73 92c-12 15 -15 15 -27 0l-74 -92c-6 -2 -19 3 -20 9l90 177c11 21 24 21 35 0l91 -177c-1 -6 -17 -11 -22 -9z" />
    <glyph glyph-name="edieresis" unicode="&#xeb;" horiz-adv-x="396" 
d="M315 256h-185c-26 0 -27 -2 -27 -27c0 -101 59 -187 166 -187c33 0 61 10 92 49c10 3 17 -3 18 -12c-33 -68 -105 -93 -157 -93c-65 0 -116 28 -145 66c-30 39 -42 86 -42 130c0 123 81 226 201 226c86 0 142 -59 142 -119c0 -14 -2 -22 -4 -26c-3 -6 -17 -7 -59 -7z
M121 286h71c74 0 96 4 104 10c3 2 6 6 6 19c0 28 -19 63 -77 63c-59 0 -110 -54 -111 -87c0 -2 0 -5 7 -5zM145 502c-27 0 -46 17 -47 47c-1 27 19 49 47 49s48 -23 48 -46c0 -29 -20 -50 -48 -50zM310 502c-27 0 -48 18 -49 48c0 26 21 48 49 48s46 -23 46 -45
c0 -29 -18 -51 -46 -51z" />
    <glyph glyph-name="egrave" unicode="&#xe8;" horiz-adv-x="396" 
d="M315 256h-185c-26 0 -27 -2 -27 -27c0 -101 59 -187 166 -187c33 0 61 10 92 49c10 3 17 -3 18 -12c-33 -68 -105 -93 -157 -93c-65 0 -116 28 -145 66c-30 39 -42 86 -42 130c0 123 81 226 201 226c86 0 142 -59 142 -119c0 -14 -2 -22 -4 -26c-3 -6 -17 -7 -59 -7z
M121 286h71c74 0 96 4 104 10c3 2 6 6 6 19c0 28 -19 63 -77 63c-59 0 -110 -54 -111 -87c0 -2 0 -5 7 -5zM189 635l79 -161c0 -9 -15 -13 -21 -12l-117 127c-12 13 -17 22 -17 30c0 7 7 15 19 25c15 10 27 14 34 14c10 0 17 -10 23 -23z" />
    <glyph glyph-name="iacute" unicode="&#xed;" horiz-adv-x="257" 
d="M98 112v175c0 39 0 44 -27 62l-9 6c-4 4 -4 15 1 18c23 8 80 34 103 49c5 0 9 -2 10 -6c-2 -35 -4 -83 -4 -124v-180c0 -72 2 -82 38 -87l21 -3c7 -5 5 -22 -2 -25c-30 2 -59 3 -94 3c-36 0 -66 -1 -94 -3c-7 3 -9 20 -2 25l21 3c37 5 38 15 38 87zM240 598l-125 -130
c-7 -1 -16 4 -17 11l86 163c6 11 14 24 24 24c7 0 19 -5 31 -15c10 -8 17 -18 17 -26c0 -6 -6 -17 -16 -27z" />
    <glyph glyph-name="icircumflex" unicode="&#xee;" horiz-adv-x="257" 
d="M98 112v175c0 39 0 44 -27 62l-9 6c-4 4 -4 15 1 18c23 8 80 34 103 49c5 0 9 -2 10 -6c-2 -35 -4 -83 -4 -124v-180c0 -72 2 -82 38 -87l21 -3c7 -5 5 -22 -2 -25c-30 2 -59 3 -94 3c-36 0 -66 -1 -94 -3c-7 3 -9 20 -2 25l21 3c37 5 38 15 38 87zM218 455l-73 92
c-12 15 -15 15 -27 0l-74 -92c-6 -2 -19 3 -20 9l90 177c11 21 24 21 35 0l91 -177c-1 -6 -17 -11 -22 -9z" />
    <glyph glyph-name="idieresis" unicode="&#xef;" horiz-adv-x="257" 
d="M98 112v175c0 39 0 44 -27 62l-9 6c-4 4 -4 15 1 18c23 8 80 34 103 49c5 0 9 -2 10 -6c-2 -35 -4 -83 -4 -124v-180c0 -72 2 -82 38 -87l21 -3c7 -5 5 -22 -2 -25c-30 2 -59 3 -94 3c-36 0 -66 -1 -94 -3c-7 3 -9 20 -2 25l21 3c37 5 38 15 38 87zM43 502
c-28 0 -48 18 -49 49c-1 29 20 52 49 52s50 -24 50 -48c0 -31 -21 -53 -50 -53zM218 502c-28 0 -50 19 -51 50c0 28 22 51 51 51s48 -24 48 -47c0 -31 -19 -54 -48 -54z" />
    <glyph glyph-name="igrave" unicode="&#xec;" horiz-adv-x="257" 
d="M98 112v175c0 39 0 44 -27 62l-9 6c-4 4 -4 15 1 18c23 8 80 34 103 49c5 0 9 -2 10 -6c-2 -35 -4 -83 -4 -124v-180c0 -72 2 -82 38 -87l21 -3c7 -5 5 -22 -2 -25c-30 2 -59 3 -94 3c-36 0 -66 -1 -94 -3c-7 3 -9 20 -2 25l21 3c37 5 38 15 38 87zM86 635l79 -161
c0 -9 -15 -13 -21 -12l-117 127c-12 13 -17 22 -17 30c0 7 7 15 19 25c15 10 27 14 34 14c10 0 17 -10 23 -23z" />
    <glyph glyph-name="ntilde" unicode="&#xf1;" horiz-adv-x="525" 
d="M98 112v175c0 39 0 44 -27 62l-9 6c-4 4 -4 15 1 18c23 8 80 34 100 49c4 0 9 -2 11 -7c-2 -23 -2 -38 -2 -47c0 -6 4 -11 11 -11c42 26 89 51 140 51c83 0 117 -57 117 -124v-172c0 -72 2 -82 38 -87l22 -3c7 -5 5 -22 -2 -25c-30 2 -59 3 -94 3c-36 0 -66 -1 -93 -3
c-7 3 -9 20 -2 25l19 3c37 6 38 15 38 87v149c0 57 -26 99 -94 99c-38 0 -71 -16 -85 -35c-13 -17 -15 -31 -15 -60v-153c0 -72 2 -81 38 -87l18 -3c7 -5 5 -22 -2 -25c-27 2 -56 3 -91 3c-36 0 -66 -1 -94 -3c-7 3 -9 20 -2 25l21 3c37 5 38 15 38 87zM243 578h54
c41 0 53 4 77 39c6 3 14 2 17 -6c-6 -26 -24 -58 -38 -73c-15 -13 -27 -16 -49 -16h-53c-45 0 -64 -16 -83 -52c-5 -4 -14 -2 -17 4c3 16 21 65 37 81c16 17 31 23 55 23z" />
    <glyph glyph-name="oacute" unicode="&#xf3;" horiz-adv-x="486" 
d="M248 408c112 0 203 -84 203 -207c0 -125 -86 -215 -211 -215c-115 0 -205 81 -205 206c0 126 95 216 213 216zM365 185c0 85 -34 193 -129 193c-66 0 -115 -63 -115 -173c0 -91 41 -189 129 -189s115 92 115 169zM344 588l-125 -130c-7 -1 -16 4 -17 11l86 163
c6 11 14 24 24 24c7 0 19 -5 31 -15c10 -8 17 -18 17 -26c0 -6 -6 -17 -16 -27z" />
    <glyph glyph-name="ocircumflex" unicode="&#xf4;" horiz-adv-x="486" 
d="M248 408c112 0 203 -84 203 -207c0 -125 -86 -215 -211 -215c-115 0 -205 81 -205 206c0 126 95 216 213 216zM365 185c0 85 -34 193 -129 193c-66 0 -115 -63 -115 -173c0 -91 41 -189 129 -189s115 92 115 169zM326 455l-73 92c-12 15 -15 15 -27 0l-74 -92
c-6 -2 -19 3 -20 9l90 177c11 21 24 21 35 0l91 -177c-1 -6 -17 -11 -22 -9z" />
    <glyph glyph-name="odieresis" unicode="&#xf6;" horiz-adv-x="486" 
d="M248 408c112 0 203 -84 203 -207c0 -125 -86 -215 -211 -215c-115 0 -205 81 -205 206c0 126 95 216 213 216zM365 185c0 85 -34 193 -129 193c-66 0 -115 -63 -115 -173c0 -91 41 -189 129 -189s115 92 115 169zM150 502c-28 0 -48 18 -49 49c-1 29 20 52 49 52
s50 -24 50 -48c0 -31 -21 -53 -50 -53zM325 502c-28 0 -50 19 -51 50c0 28 22 51 51 51s48 -24 48 -47c0 -31 -19 -54 -48 -54z" />
    <glyph glyph-name="ograve" unicode="&#xf2;" horiz-adv-x="486" 
d="M248 408c112 0 203 -84 203 -207c0 -125 -86 -215 -211 -215c-115 0 -205 81 -205 206c0 126 95 216 213 216zM365 185c0 85 -34 193 -129 193c-66 0 -115 -63 -115 -173c0 -91 41 -189 129 -189s115 92 115 169zM199 632l79 -161c0 -9 -15 -13 -21 -12l-117 127
c-12 13 -17 22 -17 30c0 7 7 15 19 25c15 10 27 14 34 14c10 0 17 -10 23 -23z" />
    <glyph glyph-name="otilde" unicode="&#xf5;" horiz-adv-x="486" 
d="M248 408c112 0 203 -84 203 -207c0 -125 -86 -215 -211 -215c-115 0 -205 81 -205 206c0 126 95 216 213 216zM365 185c0 85 -34 193 -129 193c-66 0 -115 -63 -115 -173c0 -91 41 -189 129 -189s115 92 115 169zM218 570h53c40 0 52 4 75 38c6 3 14 2 17 -6
c-6 -25 -24 -57 -37 -71c-15 -13 -27 -16 -49 -16h-52c-44 0 -62 -16 -81 -51c-5 -4 -14 -2 -17 4c3 16 21 64 37 79c15 17 30 23 54 23z" />
    <glyph glyph-name="scaron" unicode="&#x161;" horiz-adv-x="323" 
d="M186 408c42 0 79 -10 88 -18c9 -22 16 -54 16 -81c-4 -7 -19 -9 -24 -3c-17 44 -47 73 -88 73c-39 0 -64 -25 -64 -61c0 -41 42 -63 77 -83c53 -30 102 -64 102 -135c0 -76 -70 -114 -144 -114c-47 0 -82 10 -107 30c-8 19 -14 68 -12 101c5 6 18 7 23 1
c17 -55 49 -103 106 -103c36 0 67 21 67 64c0 46 -40 71 -77 92c-58 33 -99 68 -99 123c0 73 60 114 136 114zM88 668l75 -93c10 -13 17 -12 27 0l75 93c6 1 17 -3 18 -13l-90 -177c-10 -20 -23 -19 -33 0l-92 177c1 10 15 13 20 13z" />
    <glyph glyph-name="uacute" unicode="&#xfa;" horiz-adv-x="512" 
d="M159 314v-167c0 -69 17 -115 93 -115c27 0 59 11 81 30c13 12 20 27 20 58v164c0 65 -7 67 -37 79l-13 5c-7 4 -7 18 1 22c40 1 95 8 117 18c5 -1 8 -3 9 -7c-2 -19 -3 -50 -3 -87v-168c0 -79 3 -109 31 -109c12 0 25 2 39 5c6 -5 7 -25 -1 -29c-39 -8 -97 -18 -131 -37
c-5 0 -10 3 -12 7v41c0 9 -3 14 -9 14c-30 -19 -79 -52 -138 -52c-88 0 -121 44 -121 125v167c0 63 0 72 -30 85l-12 5c-6 5 -5 19 2 22c46 1 85 10 107 18c6 -1 9 -3 10 -7c-2 -17 -3 -38 -3 -87zM355 596l-125 -130c-7 -1 -16 4 -17 11l86 163c6 11 14 24 24 24
c7 0 19 -5 31 -15c10 -8 17 -18 17 -26c0 -6 -6 -17 -16 -27z" />
    <glyph glyph-name="ucircumflex" unicode="&#xfb;" horiz-adv-x="512" 
d="M159 314v-167c0 -69 17 -115 93 -115c27 0 59 11 81 30c13 12 20 27 20 58v164c0 65 -7 67 -37 79l-13 5c-7 4 -7 18 1 22c40 1 95 8 117 18c5 -1 8 -3 9 -7c-2 -19 -3 -50 -3 -87v-168c0 -79 3 -109 31 -109c12 0 25 2 39 5c6 -5 7 -25 -1 -29c-39 -8 -97 -18 -131 -37
c-5 0 -10 3 -12 7v41c0 9 -3 14 -9 14c-30 -19 -79 -52 -138 -52c-88 0 -121 44 -121 125v167c0 63 0 72 -30 85l-12 5c-6 5 -5 19 2 22c46 1 85 10 107 18c6 -1 9 -3 10 -7c-2 -17 -3 -38 -3 -87zM334 465l-73 92c-12 15 -15 15 -27 0l-74 -92c-6 -2 -19 3 -20 9l90 177
c11 21 24 21 35 0l91 -177c-1 -6 -17 -11 -22 -9z" />
    <glyph glyph-name="udieresis" unicode="&#xfc;" horiz-adv-x="512" 
d="M159 314v-167c0 -69 17 -115 93 -115c27 0 59 11 81 30c13 12 20 27 20 58v164c0 65 -7 67 -37 79l-13 5c-7 4 -7 18 1 22c40 1 95 8 117 18c5 -1 8 -3 9 -7c-2 -19 -3 -50 -3 -87v-168c0 -79 3 -109 31 -109c12 0 25 2 39 5c6 -5 7 -25 -1 -29c-39 -8 -97 -18 -131 -37
c-5 0 -10 3 -12 7v41c0 9 -3 14 -9 14c-30 -19 -79 -52 -138 -52c-88 0 -121 44 -121 125v167c0 63 0 72 -30 85l-12 5c-6 5 -5 19 2 22c46 1 85 10 107 18c6 -1 9 -3 10 -7c-2 -17 -3 -38 -3 -87zM161 502c-28 0 -48 18 -49 49c-1 29 20 52 49 52s50 -24 50 -48
c0 -31 -21 -53 -50 -53zM336 502c-28 0 -50 19 -51 50c0 28 22 51 51 51s48 -24 48 -47c0 -31 -19 -54 -48 -54z" />
    <glyph glyph-name="ugrave" unicode="&#xf9;" horiz-adv-x="512" 
d="M159 314v-167c0 -69 17 -115 93 -115c27 0 59 11 81 30c13 12 20 27 20 58v164c0 65 -7 67 -37 79l-13 5c-7 4 -7 18 1 22c40 1 95 8 117 18c5 -1 8 -3 9 -7c-2 -19 -3 -50 -3 -87v-168c0 -79 3 -109 31 -109c12 0 25 2 39 5c6 -5 7 -25 -1 -29c-39 -8 -97 -18 -131 -37
c-5 0 -10 3 -12 7v41c0 9 -3 14 -9 14c-30 -19 -79 -52 -138 -52c-88 0 -121 44 -121 125v167c0 63 0 72 -30 85l-12 5c-6 5 -5 19 2 22c46 1 85 10 107 18c6 -1 9 -3 10 -7c-2 -17 -3 -38 -3 -87zM197 635l79 -161c0 -9 -15 -13 -21 -12l-117 127c-12 13 -17 22 -17 30
c0 7 7 15 19 25c15 10 27 14 34 14c10 0 17 -10 23 -23z" />
    <glyph glyph-name="yacute" unicode="&#xfd;" horiz-adv-x="438" 
d="M68 -249c-29 0 -44 18 -44 43c0 27 18 40 40 40h19c16 0 26 7 33 18c29 45 49 87 58 111c3 8 10 29 10 43c0 20 -4 32 -17 69l-78 214c-17 47 -24 71 -59 78l-25 5c-6 5 -5 22 3 25c32 -2 62 -3 95 -3c27 0 55 1 87 3c8 -3 9 -20 2 -25l-25 -5c-14 -3 -22 -6 -22 -13
c0 -12 23 -77 29 -94l32 -92c6 -16 25 -69 29 -71c3 2 19 33 37 74l34 79c22 52 35 89 35 100c0 7 -6 14 -24 17l-31 5c-7 5 -6 22 2 25c32 -2 62 -3 88 -3c25 0 48 1 76 3c8 -4 9 -19 2 -25l-17 -3c-33 -6 -51 -35 -85 -106l-56 -115c-33 -67 -115 -241 -164 -350
c-17 -38 -41 -47 -64 -47zM354 588l-125 -130c-7 -1 -16 4 -17 11l86 163c6 11 14 24 24 24c7 0 19 -5 31 -15c10 -8 17 -18 17 -26c0 -6 -6 -17 -16 -27z" />
    <glyph glyph-name="ydieresis" unicode="&#xff;" horiz-adv-x="438" 
d="M68 -249c-29 0 -44 18 -44 43c0 27 18 40 40 40h19c16 0 26 7 33 18c29 45 49 87 58 111c3 8 10 29 10 43c0 20 -4 32 -17 69l-78 214c-17 47 -24 71 -59 78l-25 5c-6 5 -5 22 3 25c32 -2 62 -3 95 -3c27 0 55 1 87 3c8 -3 9 -20 2 -25l-25 -5c-14 -3 -22 -6 -22 -13
c0 -12 23 -77 29 -94l32 -92c6 -16 25 -69 29 -71c3 2 19 33 37 74l34 79c22 52 35 89 35 100c0 7 -6 14 -24 17l-31 5c-7 5 -6 22 2 25c32 -2 62 -3 88 -3c25 0 48 1 76 3c8 -4 9 -19 2 -25l-17 -3c-33 -6 -51 -35 -85 -106l-56 -115c-33 -67 -115 -241 -164 -350
c-17 -38 -41 -47 -64 -47zM153 502c-28 0 -48 18 -49 49c-1 29 20 52 49 52s50 -24 50 -48c0 -31 -21 -53 -50 -53zM328 502c-28 0 -50 19 -51 50c0 28 22 51 51 51s48 -24 48 -47c0 -31 -19 -54 -48 -54z" />
    <glyph glyph-name="zcaron" unicode="&#x17e;" horiz-adv-x="377" 
d="M226 0h-90c-54 0 -93 -1 -105 -3c-4 2 -6 6 -6 10c20 24 66 95 96 147l106 180c16 28 9 30 -9 30h-69c-30 0 -54 -3 -69 -15c-17 -13 -27 -36 -36 -58c-5 -6 -20 -4 -23 4c2 26 19 93 33 117c3 2 9 2 12 0c3 -17 14 -18 71 -18h142c27 0 46 0 61 3c4 -2 6 -5 5 -10
c-21 -29 -45 -66 -74 -114l-121 -203c-21 -36 -19 -40 19 -40h34c39 0 90 0 118 30c11 12 21 33 32 58c7 4 19 2 22 -6c-9 -49 -24 -96 -37 -115c-33 2 -66 3 -112 3zM108 660l75 -93c10 -13 17 -12 27 0l75 93c6 1 17 -3 18 -13l-90 -177c-10 -20 -23 -19 -33 0l-92 177
c1 10 15 13 20 13z" />
    <glyph glyph-name="exclamsmall" unicode="&#xf721;" horiz-adv-x="200" 
d="M100 92c32 0 52 -25 52 -55s-20 -51 -52 -51c-27 0 -52 19 -52 51c0 31 22 55 52 55zM100 434c56 0 53 -21 46 -69l-32 -228c-6 -7 -22 -7 -28 0l-32 228c-7 48 -10 69 46 69z" />
    <glyph glyph-name="Hungarumlautsmall" unicode="&#xf6f8;" 
d="M204 619l-92 -134c-7 -1 -17 3 -17 11l55 163c5 11 10 21 17 22c8 2 17 -3 32 -11c9 -6 15 -12 16 -20c1 -7 -3 -20 -11 -31zM346 619l-92 -134c-7 -1 -18 3 -17 11l55 163c5 11 11 21 17 23c8 1 17 -4 32 -12c9 -4 15 -11 16 -19s-4 -21 -11 -32z" />
    <glyph glyph-name="dollaroldstyle" unicode="&#xf724;" horiz-adv-x="410" 
d="M226 172l-21 -154c63 0 100 29 100 72c0 28 -13 60 -79 82zM203 251l20 142c-73 -1 -94 -39 -94 -71c0 -41 39 -61 74 -71zM227 422l7 53c6 7 28 7 34 0l-8 -56c29 -2 57 -8 85 -15c7 -14 16 -47 18 -92c-6 -8 -19 -8 -23 -2c-13 29 -32 68 -84 79l-20 -145
c91 -29 137 -67 137 -135c0 -73 -69 -119 -172 -121l-9 -66c-8 -9 -29 -8 -35 0l10 68c-56 4 -92 22 -107 29c-14 17 -24 67 -24 105c5 9 18 9 23 2c9 -37 44 -89 112 -104l22 160c-86 26 -128 61 -128 118c0 73 61 121 162 122z" />
    <glyph glyph-name="dollarsuperior" unicode="&#xf6e4;" 
d="M179 549l18 132c-68 -1 -85 -38 -85 -62c0 -34 24 -54 67 -70zM201 477l-20 -144c61 1 88 31 88 69c0 23 -8 52 -68 75zM149 336l21 152c-73 24 -110 60 -110 112c0 61 52 105 141 107l7 52c6 7 26 6 32 0l-7 -55c23 -2 45 -8 68 -12c7 -14 15 -45 16 -78
c-4 -6 -15 -7 -21 -2c-9 23 -23 55 -67 65l-20 -140l19 -7c58 -21 97 -55 97 -110c0 -66 -57 -111 -148 -112l-9 -61c-5 -9 -28 -9 -32 0l9 63c-47 4 -78 18 -90 24c-12 12 -20 53 -20 90c4 6 15 7 21 2c10 -34 36 -79 93 -90z" />
    <glyph glyph-name="ampersandsmall" unicode="&#xf726;" horiz-adv-x="604" 
d="M225 448c67 0 105 -47 105 -94c0 -37 -33 -66 -65 -80c-9 -4 -9 -9 3 -16c45 -26 75 -60 107 -108c8 -12 12 -13 18 -4c21 36 50 91 64 121c13 27 13 40 -6 42l-26 3c-7 4 -7 18 1 22h35c52 0 107 1 137 3c7 -3 8 -18 1 -22l-29 -6c-40 -8 -50 -17 -81 -64
c-22 -32 -47 -75 -77 -120c-11 -16 -9 -21 8 -43c41 -53 82 -57 100 -57c21 0 49 9 72 26c7 -2 11 -9 8 -15c-33 -38 -83 -50 -122 -50c-36 0 -70 9 -83 20c-15 13 -29 31 -33 38c-3 6 -9 9 -17 1c-20 -22 -71 -59 -144 -59c-108 0 -151 73 -151 127c0 78 58 120 109 139
c5 2 5 6 0 10c-17 13 -43 43 -43 80c0 66 55 106 109 106zM199 233c-8 5 -12 5 -19 1c-29 -16 -61 -48 -61 -97c0 -66 56 -108 120 -108c33 0 65 15 94 41c10 10 7 16 0 27c-34 54 -83 104 -134 136zM221 422c-22 0 -49 -18 -49 -59c0 -32 19 -56 52 -76c10 -6 13 -4 21 4
c17 17 28 38 28 67c0 34 -20 64 -52 64z" />
    <glyph glyph-name="Acutesmall" unicode="&#xf7b4;" 
d="M281 590l-112 -113c-8 -1 -21 7 -23 16l80 149c8 12 15 24 23 24c8 1 19 -2 32 -13c16 -10 22 -22 22 -30c0 -7 -11 -21 -22 -33z" />
    <glyph glyph-name="parenleftsuperior" unicode="&#x207d;" horiz-adv-x="220" 
d="M107 496c0 -111 40 -191 104 -242c4 -9 -3 -17 -10 -18c-105 49 -160 147 -160 260s55 211 160 260c7 -1 14 -9 10 -18c-64 -51 -104 -131 -104 -242z" />
    <glyph glyph-name="parenrightsuperior" unicode="&#x207e;" horiz-adv-x="220" 
d="M179 496c0 -113 -55 -211 -160 -260c-7 1 -14 9 -10 18c64 51 104 131 104 242s-40 191 -104 242c-4 9 3 17 10 18c105 -49 160 -147 160 -260z" />
    <glyph glyph-name="twodotenleader" unicode="&#x2025;" horiz-adv-x="500" 
d="M125 100c34 0 56 -27 56 -59s-22 -55 -56 -55c-29 0 -56 21 -56 55s24 59 56 59zM375 100c34 0 56 -27 56 -59s-22 -55 -56 -55c-29 0 -56 21 -56 55s24 59 56 59z" />
    <glyph glyph-name="onedotenleader" unicode="&#x2024;" horiz-adv-x="500" 
d="M250 100c34 0 56 -27 56 -59s-22 -55 -56 -55c-29 0 -56 21 -56 55s24 59 56 59z" />
    <glyph glyph-name="zerooldstyle" unicode="&#xf730;" horiz-adv-x="511" 
d="M260 436c120 0 220 -94 220 -226c0 -130 -100 -224 -220 -224s-220 94 -220 224c0 132 100 226 220 226zM260 32c92 0 153 77 153 178c0 103 -61 180 -153 180s-153 -77 -153 -180c0 -101 61 -178 153 -178z" />
    <glyph glyph-name="oneoldstyle" unicode="&#xf731;" horiz-adv-x="328" 
d="M201 313v-204c0 -69 2 -80 56 -85l32 -3c7 -5 6 -22 -3 -24c-24 2 -78 3 -123 3c-43 0 -102 -1 -121 -3c-9 2 -10 19 -3 24l27 3c59 7 61 16 61 85v204c0 69 -3 75 -61 85l-17 3c-7 5 -6 22 3 24c19 -2 68 -3 111 -3c45 0 89 1 113 3c9 -2 10 -19 3 -24l-17 -3
c-58 -10 -61 -16 -61 -85z" />
    <glyph glyph-name="twooldstyle" unicode="&#xf732;" horiz-adv-x="440" 
d="M184 58h119c54 0 76 1 100 49c8 5 20 1 24 -8c-18 -38 -35 -74 -47 -102c-37 2 -79 3 -136 3h-99c-33 0 -68 -1 -89 -3c-5 2 -9 11 -6 17c29 22 61 48 101 90c53 56 103 114 103 177c0 61 -34 97 -88 97c-43 0 -76 -27 -102 -69c-11 -3 -20 5 -20 15
c23 49 81 112 160 112s129 -48 129 -116c0 -60 -30 -98 -90 -163l-78 -85c-1 -8 2 -14 19 -14z" />
    <glyph glyph-name="threeoldstyle" unicode="&#xf733;" horiz-adv-x="380" 
d="M192 436c51 0 113 -27 113 -105c0 -26 -14 -59 -68 -99c-22 -16 -28 -24 -16 -28c64 -21 104 -63 104 -130c0 -74 -36 -132 -86 -177c-58 -52 -133 -85 -163 -85c-32 0 -40 28 -40 41c0 15 10 17 18 17s30 -5 51 -5c70 0 141 58 141 171c0 59 -28 120 -96 120
c-21 0 -39 -12 -57 -29c-10 1 -20 14 -15 30c60 32 152 76 152 155c0 43 -25 74 -75 74c-33 0 -60 -16 -90 -56c-10 0 -17 6 -17 15c21 44 78 91 144 91z" />
    <glyph glyph-name="fouroldstyle" unicode="&#xf734;" horiz-adv-x="470" 
d="M280 -179v181c0 20 0 24 -20 24h-235c-6 4 -8 10 -8 17l44 50c47 54 256 317 274 343c6 3 15 1 18 -5v-330c0 -25 2 -27 20 -27h86c9 -9 9 -39 0 -48h-86c-20 0 -20 -2 -20 -24v-181c-4 -6 -28 -7 -39 -7c-10 0 -29 1 -34 7zM116 74h144c19 0 20 1 20 27v212h-2
c-40 -51 -134 -168 -173 -219c-8 -11 -9 -20 11 -20z" />
    <glyph glyph-name="fiveoldstyle" unicode="&#xf735;" horiz-adv-x="370" 
d="M299 54c0 -138 -148 -230 -221 -252c-12 5 -16 21 -8 28c55 17 159 91 159 201c0 63 -38 108 -81 139s-79 51 -79 86c0 17 9 50 22 80c13 31 31 61 44 65s33 7 65 12l70 10c37 5 44 8 55 15c9 -1 12 -7 11 -13c-7 -22 -25 -59 -57 -64l-127 -18c-29 -4 -34 -12 -39 -28
c-5 -18 0 -29 28 -48c16 -11 34 -23 47 -32c65 -45 111 -102 111 -181z" />
    <glyph glyph-name="sixoldstyle" unicode="&#xf736;" horiz-adv-x="489" 
d="M299 338c92 0 143 -73 143 -153c0 -112 -89 -199 -204 -199c-110 0 -183 83 -183 208c0 97 40 212 141 305c107 99 240 131 279 137c7 -3 10 -15 3 -20c-57 -22 -126 -51 -194 -114c-91 -84 -147 -190 -147 -315c0 -84 39 -169 122 -169c63 0 108 53 108 131
c0 69 -35 142 -112 142c-15 0 -33 -2 -52 -11c-7 2 -11 10 -7 18c36 26 67 40 103 40z" />
    <glyph glyph-name="sevenoldstyle" unicode="&#xf737;" horiz-adv-x="472" 
d="M344 360h-192c-50 0 -78 -7 -98 -52c-9 -4 -20 0 -23 7c14 28 29 77 35 110c24 -2 54 -3 98 -3h156c53 0 110 0 126 3c6 -1 9 -5 9 -10c-27 -40 -76 -128 -127 -225l-205 -387c-3 -1 -4 -1 -10 -1c-10 0 -24 6 -26 19l260 482c27 50 23 57 -3 57z" />
    <glyph glyph-name="eightoldstyle" unicode="&#xf738;" horiz-adv-x="430" 
d="M227 621c79 0 152 -49 152 -144c0 -81 -65 -123 -121 -158c65 -49 117 -92 117 -185c0 -89 -73 -148 -164 -148c-83 0 -162 46 -162 138c0 77 62 127 122 167c-58 39 -116 95 -116 168c0 101 81 162 172 162zM194 273c-45 -34 -78 -84 -78 -143c0 -61 37 -114 99 -114
c60 0 94 41 94 98c0 70 -64 126 -115 159zM220 591c-59 0 -96 -53 -96 -109c0 -70 62 -113 110 -145c46 29 77 80 77 143c0 55 -32 111 -91 111z" />
    <glyph glyph-name="nineoldstyle" unicode="&#xf739;" horiz-adv-x="472" 
d="M273 -84c-70 -64 -160 -101 -232 -114c-7 4 -11 16 -5 22c57 20 104 46 143 76c52 40 159 151 159 332c0 67 -22 171 -119 171c-62 0 -102 -51 -102 -120c0 -62 37 -145 104 -145c20 0 33 2 48 9c7 -3 8 -11 6 -18c-26 -21 -57 -35 -97 -35c-77 0 -132 66 -132 148
c0 115 92 194 196 194c120 0 178 -87 178 -209c0 -102 -43 -215 -147 -311z" />
    <glyph glyph-name="commasuperior" unicode="&#xf6e2;" horiz-adv-x="180" 
d="M85 439c33 0 68 -31 68 -80c0 -70 -49 -105 -113 -120c-12 3 -16 16 -8 26c28 6 70 25 70 57c0 34 -44 44 -49 47c-11 6 -17 15 -17 28c0 23 17 42 49 42z" />
    <glyph glyph-name="threequartersemdash" unicode="&#xf6de;" horiz-adv-x="750" 
d="M0 230h750v-49h-750v49z" />
    <glyph glyph-name="periodsuperior" unicode="&#xf6e8;" horiz-adv-x="180" 
d="M90 418c33 0 54 -26 54 -57s-21 -53 -54 -53c-28 0 -54 20 -54 53c0 32 23 57 54 57z" />
    <glyph glyph-name="questionsmall" unicode="&#xf73f;" horiz-adv-x="276" 
d="M103 272l63 27c24 10 29 20 29 28c0 44 -66 51 -119 51c-7 0 -30 10 -30 35c0 18 12 35 39 35c73 0 146 -71 146 -143c0 -31 -18 -53 -45 -66l-53 -25c-20 -10 -31 -18 -31 -32c0 -10 4 -27 9 -38c-4 -8 -14 -10 -21 -6c-12 16 -35 50 -35 77c0 32 22 46 48 57zM106 92
c32 0 52 -25 52 -55s-20 -51 -52 -51c-27 0 -52 19 -52 51c0 31 22 55 52 55z" />
    <glyph glyph-name="asuperior" unicode="&#xf6e9;" horiz-adv-x="332" 
d="M201 496v12c0 36 -6 70 -53 70c-21 0 -41 -9 -45 -31c-1 -6 -2 -20 -9 -26c-10 -7 -37 -17 -45 -17s-14 5 -14 13c0 11 7 28 30 46c26 21 73 45 115 45c67 0 84 -36 82 -86l-5 -122c-1 -32 5 -56 34 -56c9 0 20 4 29 10c8 0 12 -8 8 -14c-21 -22 -50 -32 -72 -32
c-15 0 -30 5 -46 20c-6 6 -10 9 -15 9c-4 0 -9 -2 -16 -6c-11 -6 -46 -23 -70 -23c-53 0 -76 33 -76 70c0 26 18 46 39 55c46 18 86 30 107 38c19 7 22 13 22 25zM196 384l2 52c1 18 -9 15 -35 6s-64 -18 -64 -56c0 -16 11 -43 45 -43c23 0 39 11 44 16c5 6 8 15 8 25z" />
    <glyph glyph-name="bsuperior" unicode="&#xf6ea;" horiz-adv-x="406" 
d="M75 380v295c0 39 0 45 -24 57l-8 4c-4 2 -4 15 0 17c18 6 62 16 91 30c3 0 6 -1 8 -4c-2 -25 -3 -57 -3 -89v-90c0 -12 3 -15 7 -15c20 11 51 23 83 23c86 0 145 -61 145 -140c0 -94 -74 -160 -174 -160c-29 0 -51 3 -68 9c-16 5 -23 10 -29 10s-12 -6 -16 -11
c-4 -2 -12 0 -14 3c1 10 2 24 2 61zM139 522v-102c0 -25 6 -47 19 -62s34 -24 52 -24c65 0 94 52 94 114c0 73 -41 126 -111 126c-16 0 -34 -5 -45 -12c-8 -5 -9 -12 -9 -40z" />
    <glyph glyph-name="centsuperior" unicode="&#xf6e0;" 
d="M167 380l41 272c-71 0 -131 -39 -131 -138c0 -57 30 -114 90 -134zM239 648l-41 -277c9 -1 18 -2 27 -2c48 0 82 22 104 52c8 -1 14 -8 14 -15c-39 -62 -97 -80 -151 -80h-1l-10 -69c-6 -7 -25 -7 -33 0l11 72c-79 11 -141 68 -141 162c0 117 93 183 194 191l8 57
c6 5 27 5 32 0l-8 -57c20 0 42 -3 64 -7c11 -9 19 -23 19 -38c0 -18 -6 -28 -13 -28c-6 0 -10 3 -14 7c-15 16 -34 26 -61 32z" />
    <glyph glyph-name="dsuperior" unicode="&#xf6eb;" horiz-adv-x="406" 
d="M331 690v-264c0 -56 1 -83 23 -83c8 0 21 4 33 7c5 -4 6 -23 -1 -26c-32 -5 -87 -15 -109 -23c-4 0 -8 2 -8 6v12c0 10 0 19 -2 22h-3c-34 -22 -60 -33 -90 -33c-85 0 -142 62 -142 137c0 99 82 163 186 163c19 0 36 -3 45 -6c4 0 4 4 4 10v63c0 38 0 42 -24 56l-7 4
c-4 2 -4 16 0 18c19 6 62 16 90 30c3 0 6 -1 8 -4c-1 -22 -3 -57 -3 -89zM267 392v132c0 14 -3 20 -8 27c-12 15 -35 30 -58 30c-63 0 -99 -51 -99 -113c0 -65 39 -122 108 -122c14 0 40 9 52 20c5 4 5 15 5 26z" />
    <glyph glyph-name="esuperior" unicode="&#xf6ec;" horiz-adv-x="328" 
d="M188 608c67 0 112 -45 112 -99c0 -8 -1 -15 -3 -19c-3 -5 -17 -7 -60 -7h-128c-17 0 -19 -1 -19 -16c0 -58 46 -116 119 -116c36 0 57 10 76 37c8 0 15 -4 15 -12c-23 -45 -69 -68 -122 -68c-111 0 -143 85 -143 139c0 86 61 161 153 161zM120 509h57c35 0 48 1 53 5
c4 3 6 9 6 18c0 22 -15 50 -59 50c-46 0 -79 -41 -79 -63c0 -9 4 -10 22 -10z" />
    <glyph glyph-name="isuperior" unicode="&#xf6ed;" horiz-adv-x="219" 
d="M144 503v-104c0 -47 2 -59 33 -63l21 -3c6 -4 6 -17 -1 -20c-29 1 -54 2 -84 2c-34 0 -59 -1 -86 -2c-7 3 -7 16 -1 20l21 3c31 4 33 16 33 63v117c0 28 -1 33 -19 42l-14 7c-5 4 -5 13 -1 17c22 8 63 17 91 32c4 1 10 -1 10 -6c-2 -18 -3 -54 -3 -105zM108 783
c24 0 40 -19 40 -43c0 -29 -20 -42 -43 -42c-25 0 -42 16 -42 41c0 27 21 44 45 44z" />
    <glyph glyph-name="lsuperior" unicode="&#xf6ee;" horiz-adv-x="214" 
d="M75 399v285c0 28 -1 33 -19 42l-14 7c-5 4 -5 13 -1 17c22 8 63 17 91 32c4 1 10 -1 10 -6c-2 -18 -3 -54 -3 -105v-272c0 -47 2 -59 33 -63l25 -3c6 -4 6 -17 -1 -20c-33 1 -58 2 -88 2c-34 0 -59 -1 -90 -2c-7 3 -7 16 -1 20l25 3c31 4 33 16 33 63z" />
    <glyph glyph-name="msuperior" unicode="&#xf6ef;" horiz-adv-x="629" 
d="M80 399v117c0 28 -1 33 -19 42l-14 7c-5 4 -5 13 -1 17c22 7 63 18 91 32c4 0 6 -3 7 -6v-29c0 -4 3 -8 9 -8c32 19 72 37 108 37c42 0 66 -18 80 -48l16 10c29 18 67 38 104 38c69 0 93 -42 93 -97v-112c0 -47 2 -59 33 -63l21 -3c6 -4 6 -17 -1 -20c-29 1 -54 2 -84 2
c-34 0 -59 -1 -76 -2c-7 3 -7 16 -1 20l11 3c30 8 33 16 33 63v98c0 42 -20 71 -66 71c-26 0 -50 -12 -62 -24c-9 -8 -13 -21 -13 -48v-97c0 -47 3 -58 34 -63l17 -3c6 -4 6 -17 -1 -20c-26 1 -51 2 -81 2c-34 0 -59 -1 -76 -2c-7 3 -7 16 -1 20l11 3c30 8 33 16 33 63v98
c0 42 -20 71 -69 71c-24 0 -49 -12 -60 -24c-11 -13 -12 -25 -12 -41v-104c0 -47 3 -55 33 -63l11 -3c6 -4 6 -17 -1 -20c-19 1 -44 2 -74 2c-34 0 -59 -1 -86 -2c-7 3 -7 16 -1 20l21 3c31 4 33 16 33 63z" />
    <glyph glyph-name="nsuperior" unicode="&#x207f;" horiz-adv-x="424" 
d="M80 399v117c0 28 -1 33 -19 42l-14 7c-5 4 -5 13 -1 17c22 7 63 18 91 32c4 0 6 -3 7 -6v-29c0 -4 3 -8 9 -8c32 19 68 37 105 37c68 0 91 -42 91 -97v-112c0 -47 2 -59 33 -63l21 -3c6 -4 6 -17 -1 -20c-29 1 -54 2 -84 2c-34 0 -59 -1 -76 -2c-7 3 -7 16 -1 20l11 3
c30 8 33 16 33 63v98c0 42 -20 71 -69 71c-24 0 -49 -12 -60 -24c-11 -13 -12 -25 -12 -41v-104c0 -47 3 -55 33 -63l11 -3c6 -4 6 -17 -1 -20c-19 1 -44 2 -74 2c-34 0 -59 -1 -86 -2c-7 3 -7 16 -1 20l21 3c31 4 33 16 33 63z" />
    <glyph glyph-name="osuperior" unicode="&#xf6f0;" horiz-adv-x="387" 
d="M197 608c90 0 158 -61 158 -147c0 -88 -65 -153 -164 -153c-93 0 -159 60 -159 146c0 89 71 154 165 154zM189 582c-46 0 -83 -48 -83 -118c0 -62 28 -130 92 -130c63 0 83 65 83 116c0 54 -25 132 -92 132z" />
    <glyph glyph-name="rsuperior" unicode="&#xf6f1;" horiz-adv-x="272" 
d="M80 399v117c0 28 -1 33 -19 42l-14 7c-5 4 -5 13 -1 17c22 8 63 17 86 32c8 0 15 -1 15 -8c0 -5 -4 -16 -4 -29c0 -6 1 -9 4 -9c21 14 54 40 83 40c20 0 35 -14 35 -32c0 -19 -13 -36 -37 -36c-12 0 -27 16 -53 16c-27 0 -31 -24 -31 -66v-91c0 -47 2 -60 33 -63l27 -3
c6 -4 6 -17 -1 -20c-35 1 -60 2 -90 2c-34 0 -59 -1 -86 -2c-7 3 -7 16 -1 20l21 3c31 4 33 16 33 63z" />
    <glyph glyph-name="ssuperior" unicode="&#xf6f2;" horiz-adv-x="268" 
d="M152 608c32 0 62 -10 69 -13c7 -15 12 -38 12 -66c-3 -4 -13 -5 -18 -2c-12 37 -37 55 -68 55c-30 0 -51 -16 -51 -42c0 -29 37 -44 53 -50c50 -19 89 -46 89 -97c0 -59 -56 -85 -112 -85c-33 0 -65 7 -87 26c-7 15 -10 46 -9 70c5 6 16 7 20 1c11 -36 40 -72 80 -72
c28 0 51 14 51 45c0 32 -27 46 -61 59c-44 17 -76 44 -76 86c0 54 46 85 108 85z" />
    <glyph glyph-name="tsuperior" unicode="&#xf6f3;" horiz-adv-x="270" 
d="M80 393v142c0 25 -2 27 -19 27h-21c-6 2 -7 13 -2 17c28 8 47 18 56 24c10 7 24 29 31 43c7 2 15 2 20 -4v-32c0 -13 1 -14 12 -14h84c10 -5 10 -31 1 -34h-84c-12 0 -14 -2 -14 -18v-112c0 -48 6 -89 58 -89c17 0 32 6 44 13c7 -3 9 -10 7 -15c-16 -14 -51 -33 -93 -33
c-65 0 -80 36 -80 85z" />
    <glyph glyph-name="parenleftinferior" unicode="&#x208d;" horiz-adv-x="220" 
d="M107 27c0 -111 40 -191 104 -242c4 -9 -3 -17 -10 -18c-105 49 -160 147 -160 260s55 211 160 260c7 -1 14 -9 10 -18c-64 -51 -104 -131 -104 -242z" />
    <glyph glyph-name="parenrightinferior" unicode="&#x208e;" horiz-adv-x="220" 
d="M179 27c0 -113 -55 -211 -160 -260c-7 1 -14 9 -10 18c64 51 104 131 104 242s-40 191 -104 242c-4 9 3 17 10 18c105 -49 160 -147 160 -260z" />
    <glyph glyph-name="Circumflexsmall" unicode="&#xf6f6;" 
d="M274 482l-80 78c-11 10 -16 11 -27 1l-80 -79c-7 0 -20 3 -22 11l97 163c11 18 25 18 36 0l98 -163c-3 -8 -17 -11 -22 -11z" />
    <glyph glyph-name="hyphensuperior" unicode="&#xf6e6;" horiz-adv-x="243" 
d="M209 491h-175c-12 9 -12 41 0 48h175c12 -7 12 -39 0 -48z" />
    <glyph glyph-name="Gravesmall" unicode="&#xf760;" 
d="M218 477l-112 113c-11 12 -22 26 -22 33c0 8 7 18 22 30c13 11 24 14 32 13c8 0 15 -12 23 -24l80 -149c-2 -9 -15 -17 -23 -16z" />
    <glyph glyph-name="Asmall" unicode="&#xf761;" horiz-adv-x="457" 
d="M258 155h-95c-23 0 -26 -1 -34 -24l-23 -64c-11 -32 -8 -36 11 -40l27 -5c8 -5 7 -23 -3 -25c-25 2 -51 3 -79 3s-52 -2 -70 -3c-9 4 -9 20 -2 25l23 5c31 7 42 18 62 66l96 230c17 41 24 65 26 84c18 7 37 26 42 38c8 3 14 1 16 -5c4 -10 20 -62 43 -123l90 -239
c12 -33 21 -46 57 -53l16 -3c9 -5 7 -23 -3 -25c-26 2 -49 3 -83 3c-36 0 -65 -1 -90 -3c-10 3 -11 21 -2 25l20 3c26 4 25 10 13 41l-24 65c-8 23 -11 24 -34 24zM173 187h69c26 0 29 2 18 31l-31 85c-8 23 -12 31 -15 36h-2c-3 -4 -7 -13 -16 -34l-36 -89
c-11 -27 -9 -29 13 -29z" />
    <glyph glyph-name="Bsmall" unicode="&#xf762;" horiz-adv-x="481" 
d="M105 105v212c0 65 -1 81 -29 85l-31 4c-9 3 -8 22 1 25c50 4 109 6 167 6c49 0 90 -1 127 -15c36 -13 63 -41 63 -88c0 -43 -29 -70 -80 -88c-4 -7 3 -8 25 -13c36 -8 89 -40 89 -109c0 -54 -27 -85 -66 -104c-38 -18 -89 -23 -136 -23c-20 0 -53 3 -89 3
c-32 0 -66 -1 -105 -3c-8 3 -9 20 -2 25l19 3c43 7 47 11 47 80zM181 201v-97c0 -60 13 -78 75 -78c50 0 97 23 97 89c0 79 -60 103 -125 103c-45 0 -47 -4 -47 -17zM181 381v-117c0 -16 2 -17 34 -17c63 0 106 15 106 78c0 60 -45 83 -96 83c-42 0 -44 -9 -44 -27z" />
    <glyph glyph-name="Csmall" unicode="&#xf763;" horiz-adv-x="501" 
d="M317 448c65 0 129 -19 137 -19c0 -21 3 -70 9 -110c-4 -8 -19 -10 -26 -2c-15 55 -49 102 -139 102c-86 0 -171 -58 -171 -194c0 -134 86 -210 180 -210s133 75 144 101c5 9 21 9 26 -1c-5 -44 -21 -90 -33 -108c-29 -5 -66 -21 -135 -21c-63 0 -125 11 -176 46
c-54 37 -95 98 -95 178c0 81 34 141 84 180c49 38 118 58 195 58z" />
    <glyph glyph-name="Dsmall" unicode="&#xf764;" horiz-adv-x="573" 
d="M105 105v212c0 65 -1 82 -24 85l-30 4c-9 3 -8 22 1 25c56 4 112 6 193 6c56 0 105 -6 152 -22c91 -31 138 -104 138 -196c0 -79 -41 -152 -121 -193c-45 -23 -101 -31 -151 -31c-45 0 -90 5 -120 5c-32 0 -63 -1 -102 -3c-8 3 -9 20 -2 25l19 3c43 7 47 11 47 80z
M181 358v-238c0 -64 10 -96 86 -96c120 0 179 75 179 197c0 123 -86 187 -199 187c-33 0 -52 -4 -60 -11c-6 -4 -6 -17 -6 -39z" />
    <glyph glyph-name="Esmall" unicode="&#xf765;" horiz-adv-x="448" 
d="M105 105v224c0 69 -4 72 -42 80l-14 3c-7 4 -6 21 2 25c29 -2 60 -3 93 -3h142c44 0 84 1 93 3c1 -12 6 -59 11 -102c-4 -8 -20 -9 -26 -2c-6 26 -12 39 -18 48c-16 24 -61 24 -85 24h-44c-35 0 -36 -1 -36 -32v-111c0 -18 0 -20 19 -20h47c53 0 58 8 66 38l5 19
c5 7 20 6 25 -2c-2 -29 -2 -47 -2 -70c0 -25 0 -43 2 -72c-5 -8 -20 -9 -25 -2l-5 19c-8 30 -13 38 -66 38h-47c-19 0 -19 -3 -19 -23v-72c0 -30 2 -61 11 -72c9 -10 27 -14 84 -14c64 0 101 3 130 83c7 7 23 5 26 -4c-5 -42 -19 -92 -30 -111c-63 2 -116 3 -170 3h-88
c-32 0 -63 -1 -111 -3c-8 3 -9 20 -2 25l27 3c43 5 47 11 47 80z" />
    <glyph glyph-name="Fsmall" unicode="&#xf766;" horiz-adv-x="410" 
d="M105 105v224c0 69 -5 71 -42 80l-12 3c-7 5 -6 22 2 25c27 -2 58 -3 90 -3h139c44 0 82 1 96 3c1 -12 2 -59 5 -102c-4 -10 -20 -11 -26 -2c-6 26 -12 39 -18 48c-17 25 -61 24 -85 24h-39c-31 0 -34 0 -34 -35v-116c0 -18 0 -20 19 -20h54c53 0 58 8 66 38l5 19
c5 7 20 6 25 -2c-2 -29 -2 -47 -2 -70c0 -25 0 -43 2 -72c-5 -8 -20 -9 -25 -2l-5 19c-8 30 -13 38 -66 38h-54c-19 0 -19 -3 -19 -23v-74c0 -69 4 -76 47 -80l31 -3c7 -5 6 -22 -2 -25c-50 2 -83 3 -114 3c-32 0 -63 -1 -102 -3c-8 3 -9 20 -2 25l19 3c43 7 47 11 47 80z
" />
    <glyph glyph-name="Gsmall" unicode="&#xf767;" horiz-adv-x="529" 
d="M384 65v25c0 46 -1 52 -46 60l-32 6c-7 5 -7 19 1 25c40 -2 84 -3 113 -3c28 0 61 1 85 3c8 -5 9 -19 3 -25l-18 -4c-26 -6 -30 -12 -30 -55v-28c0 -24 2 -39 16 -46c4 -3 4 -12 -1 -14c-11 0 -32 -6 -60 -11c-27 -5 -62 -12 -100 -12c-89 0 -162 21 -215 74
c-42 42 -62 100 -62 152c0 56 20 113 63 157c46 47 114 79 221 79c55 0 104 -14 134 -20c1 -20 3 -60 9 -113c-5 -9 -20 -10 -26 -1c-26 79 -69 105 -142 105c-105 0 -170 -81 -170 -198c0 -123 76 -206 197 -206c53 0 60 10 60 50z" />
    <glyph glyph-name="Hsmall" unicode="&#xf768;" horiz-adv-x="610" 
d="M217 242h176c32 0 36 0 36 26v61c0 69 -4 73 -47 80l-19 3c-7 5 -6 22 2 25c39 -2 70 -3 102 -3s63 1 102 3c8 -3 9 -20 2 -25l-19 -3c-43 -7 -47 -11 -47 -80v-224c0 -69 4 -74 47 -80l23 -3c7 -5 6 -22 -2 -25c-42 2 -75 3 -106 3c-32 0 -63 -1 -102 -3
c-8 3 -9 20 -2 25l19 3c43 7 47 11 47 80v79c0 25 -2 26 -36 26h-176c-34 0 -36 -1 -36 -26v-79c0 -69 4 -75 47 -80l27 -3c7 -5 6 -22 -2 -25c-46 2 -79 3 -110 3c-32 0 -63 -1 -94 -3c-8 3 -9 20 -2 25l11 3c42 11 47 11 47 80v224c0 69 -4 74 -47 80l-23 3
c-7 5 -6 22 2 25c43 -2 74 -3 106 -3s63 1 98 3c8 -3 9 -20 2 -25l-15 -3c-42 -8 -47 -11 -47 -80v-61c0 -26 4 -26 36 -26z" />
    <glyph glyph-name="Ismall" unicode="&#xf769;" horiz-adv-x="286" 
d="M105 105v224c0 69 -4 73 -47 80l-19 3c-7 5 -6 22 2 25c39 -2 70 -3 102 -3s63 1 102 3c8 -3 9 -20 2 -25l-19 -3c-43 -7 -47 -11 -47 -80v-224c0 -69 4 -73 47 -80l19 -3c7 -5 6 -22 -2 -25c-38 2 -71 3 -102 3c-32 0 -63 -1 -102 -3c-8 3 -9 20 -2 25l19 3
c43 7 47 11 47 80z" />
    <glyph glyph-name="Jsmall" unicode="&#xf76a;" horiz-adv-x="304" 
d="M123 71v258c0 69 -4 75 -47 80l-25 3c-7 5 -6 22 2 25c45 -2 76 -3 108 -3s63 1 98 3c8 -3 9 -20 2 -25l-15 -3c-42 -8 -47 -11 -47 -80v-254c0 -51 -5 -96 -19 -128c-22 -51 -82 -91 -150 -91c-10 0 -34 2 -34 20s14 44 31 44c8 0 18 -4 32 -13c13 -8 20 -11 26 -11
c38 0 38 151 38 175z" />
    <glyph glyph-name="Ksmall" unicode="&#xf76b;" horiz-adv-x="509" 
d="M105 105v224c0 69 -4 71 -47 80l-15 3c-7 5 -6 22 2 25c35 -2 66 -3 98 -3s63 1 100 3c9 -3 10 -20 1 -25l-20 -3c-39 -6 -43 -11 -43 -80v-56c0 -20 0 -32 5 -35s20 1 27 6c34 24 113 113 121 122c21 24 23 38 8 41l-22 5c-9 4 -8 23 2 25c28 -2 57 -3 89 -3
c28 0 51 1 84 3c9 -3 11 -20 2 -25c-18 -4 -49 -9 -68 -19c-25 -13 -49 -33 -93 -75l-46 -44c-20 -20 -19 -23 -4 -41l125 -150c36 -43 51 -57 95 -60l14 -1c8 -6 6 -21 -2 -25c-31 2 -54 3 -98 3c-33 0 -65 0 -98 -3c-10 4 -11 19 -4 25l14 2c23 3 27 9 12 27l-90 109
c-8 10 -37 53 -56 53c-17 0 -17 -10 -17 -38v-70c0 -69 4 -73 47 -80l19 -3c7 -5 6 -22 -2 -25c-38 2 -71 3 -102 3c-32 0 -63 -1 -95 -3c-8 3 -9 20 -2 25l12 3c42 10 47 11 47 80z" />
    <glyph glyph-name="Lsmall" unicode="&#xf76c;" horiz-adv-x="422" 
d="M105 105v224c0 69 -4 73 -47 80l-19 3c-7 5 -6 22 2 25c39 -2 70 -3 102 -3s63 1 96 3c8 -3 9 -20 2 -25l-13 -3c-42 -10 -47 -11 -47 -80v-215c0 -31 2 -59 11 -69c9 -9 25 -16 77 -16c61 0 98 3 127 83c7 7 23 5 26 -4c-5 -42 -19 -92 -30 -111c-63 2 -116 3 -167 3
h-82c-32 0 -63 -1 -102 -3c-8 3 -9 20 -2 25l19 3c43 7 47 11 47 80z" />
    <glyph glyph-name="Msmall" unicode="&#xf76d;" horiz-adv-x="675" 
d="M241 295l62 -119c7 -13 32 -58 36 -61c4 2 22 34 41 70l50 96c48 92 53 109 69 156c22 -2 42 -3 58 -3c24 0 53 1 82 3c9 -3 10 -20 3 -25l-22 -3c-46 -6 -48 -25 -48 -84c0 -106 0 -191 5 -251c2 -22 2 -46 33 -49l29 -3c7 -4 7 -21 -1 -25c-36 2 -75 3 -100 3
c-29 0 -60 -1 -88 -3c-7 5 -8 21 -1 25l22 3c32 4 32 12 32 52v231c0 12 0 27 -3 29c-3 0 -29 -50 -43 -76l-61 -115c-8 -15 -60 -119 -71 -151c-5 -4 -13 -4 -19 0c-11 36 -42 100 -59 133l-65 126c-11 22 -32 75 -40 78c-4 -5 -5 -72 -6 -100c-1 -40 -2 -82 -2 -131
c0 -51 1 -73 29 -76l33 -3c7 -4 6 -21 -1 -25c-26 2 -55 3 -82 3c-22 0 -52 -1 -83 -3c-7 4 -8 20 0 25l21 3c33 5 36 15 41 50c8 54 14 215 14 283c0 32 -11 47 -45 51l-24 3c-6 5 -7 21 2 25c27 -2 50 -3 77 -3c20 0 41 0 73 3c0 -44 18 -76 52 -142z" />
    <glyph glyph-name="Nsmall" unicode="&#xf76e;" horiz-adv-x="579" 
d="M449 164v116c0 100 -6 126 -43 129l-32 3c-7 6 -6 20 2 25c37 -2 60 -3 89 -3s51 1 83 3c8 -5 8 -20 1 -25l-30 -3c-26 -3 -34 -30 -34 -129v-168c0 -20 0 -101 3 -116c-3 -6 -12 -11 -21 -9c-11 14 -31 35 -93 102l-152 162c-38 40 -64 66 -77 77c-4 0 -4 -11 -4 -42
v-132c0 -100 6 -126 43 -129l32 -3c8 -6 6 -20 -2 -25c-37 2 -60 3 -89 3s-48 -1 -83 -3c-8 4 -8 20 -1 25l30 3c26 3 34 30 34 129v179c0 33 -1 47 -21 62c-8 6 -27 12 -37 14l-15 3c-7 6 -7 21 2 25c38 -3 65 -3 86 -3c14 0 28 1 40 3c20 -38 57 -81 98 -123l94 -97
c22 -22 80 -85 91 -93c6 2 6 16 6 40z" />
    <glyph glyph-name="Osmall" unicode="&#xf76f;" horiz-adv-x="566" 
d="M285 448c161 0 243 -107 243 -229c0 -135 -102 -233 -243 -233c-155 0 -247 101 -247 227c0 133 102 235 247 235zM278 419c-72 0 -151 -49 -151 -190c0 -103 47 -214 163 -214c76 0 149 52 149 189c0 107 -51 215 -161 215z" />
    <glyph glyph-name="Psmall" unicode="&#xf770;" horiz-adv-x="446" 
d="M105 105v212c0 65 -1 80 -24 84l-30 5c-9 3 -8 22 1 25c56 4 107 6 160 6c56 0 92 -7 120 -17c33 -12 81 -46 81 -117c0 -69 -46 -101 -83 -114c-34 -12 -72 -17 -91 -15c-5 5 -5 14 -1 18c62 13 93 50 93 114c0 66 -41 102 -109 102c-41 0 -41 -6 -41 -34v-269
c0 -69 4 -74 47 -80l23 -3c7 -5 6 -22 -2 -25c-42 2 -75 3 -106 3c-32 0 -63 -1 -98 -3c-8 3 -9 20 -2 25l15 3c43 9 47 11 47 80z" />
    <glyph glyph-name="Qsmall" unicode="&#xf771;" horiz-adv-x="566" 
d="M285 448c161 0 243 -107 243 -229c0 -110 -68 -195 -166 -220c-2 -3 1 -8 5 -12c33 -30 93 -88 144 -105c27 -9 46 -11 57 -11c20 0 35 5 43 8c6 -2 8 -9 4 -13c-20 -15 -59 -24 -89 -24c-37 0 -80 10 -121 30c-47 23 -96 67 -126 99c-11 11 -22 16 -37 18
c-115 12 -204 100 -204 224c0 133 102 235 247 235zM278 419c-72 0 -151 -49 -151 -190c0 -103 47 -214 163 -214c76 0 149 52 149 189c0 107 -51 215 -161 215z" />
    <glyph glyph-name="Rsmall" unicode="&#xf772;" horiz-adv-x="486" 
d="M105 105v212c0 65 -1 82 -24 85l-28 4c-8 1 -10 22 0 25c55 4 111 6 166 6c93 0 194 -15 194 -120c0 -64 -50 -93 -89 -107c-4 -4 -3 -10 0 -15c50 -84 94 -133 127 -160c18 -15 37 -20 53 -21c4 -4 4 -13 0 -16c-9 -3 -23 -5 -42 -5c-60 0 -96 19 -140 75
c-25 32 -52 76 -73 108c-8 12 -24 16 -40 16c-26 0 -28 -2 -28 -16v-71c0 -69 4 -74 47 -80l23 -3c7 -5 6 -22 -2 -25c-42 2 -75 3 -106 3c-32 0 -63 -1 -98 -3c-10 3 -11 21 -2 25l15 3c43 9 47 11 47 80zM181 380v-136c0 -25 1 -25 50 -25c65 0 99 26 99 95
c0 50 -35 94 -105 94c-37 0 -44 -2 -44 -28z" />
    <glyph glyph-name="Ssmall" unicode="&#xf773;" horiz-adv-x="374" 
d="M196 181l-45 23c-48 25 -89 64 -89 120c0 73 56 124 157 124c35 0 59 -9 93 -15c8 -17 15 -55 14 -98c-3 -8 -21 -9 -26 -2c-8 35 -34 86 -93 86s-81 -34 -81 -68c0 -36 27 -58 67 -79l62 -32c36 -18 81 -60 81 -127c0 -78 -64 -127 -163 -127c-61 0 -101 21 -115 31
c-9 14 -21 50 -21 103c4 10 19 11 26 2c8 -36 52 -107 119 -107c51 0 84 26 84 72c0 32 -13 65 -70 94z" />
    <glyph glyph-name="Tsmall" unicode="&#xf774;" horiz-adv-x="468" 
d="M198 105v274c0 26 -1 26 -21 26h-31c-61 0 -87 -6 -111 -75c-10 -6 -21 -3 -25 5c11 43 22 93 27 118c4 4 14 4 18 0c1 -20 15 -19 55 -19h278c37 0 44 1 52 19c7 4 15 2 18 -3c-8 -26 -12 -79 -10 -117c-4 -8 -21 -9 -25 -1c-7 65 -33 73 -93 73h-34
c-19 0 -22 0 -22 -26v-274c0 -69 4 -75 47 -80l27 -3c7 -5 6 -22 -2 -25c-41 2 -79 3 -110 3c-32 0 -68 -1 -110 -3c-8 3 -9 20 -2 25l27 3c43 5 47 11 47 80z" />
    <glyph glyph-name="Usmall" unicode="&#xf775;" horiz-adv-x="550" 
d="M96 169v160c0 69 -5 71 -47 80l-14 3c-7 5 -6 22 2 25c34 -2 65 -3 97 -3s63 1 102 3c8 -3 9 -20 2 -25l-19 -3c-43 -7 -47 -11 -47 -80v-141c0 -100 33 -168 130 -168c90 0 129 68 129 167v93c0 100 -6 123 -49 129l-21 3c-7 6 -6 20 2 25c32 -2 55 -3 84 -3s51 1 83 3
c8 -5 8 -20 1 -25l-30 -3c-26 -3 -34 -30 -34 -129v-99c0 -128 -59 -195 -186 -195c-64 0 -112 13 -142 42c-30 30 -43 76 -43 141z" />
    <glyph glyph-name="Vsmall" unicode="&#xf776;" horiz-adv-x="484" 
d="M198 76l-113 251c-30 66 -34 71 -58 77l-33 8c-6 6 -7 20 1 25c26 -2 59 -3 90 -3c36 0 65 1 97 3c8 -4 9 -20 0 -25l-21 -3c-26 -4 -26 -17 -4 -66l49 -111c25 -57 42 -94 57 -127c20 42 37 84 56 126c21 46 49 115 59 144c7 21 6 28 -24 34l-16 3c-9 6 -6 19 2 25
c29 -2 55 -3 82 -3c32 0 55 1 71 3c10 -4 12 -20 5 -25l-28 -6c-30 -6 -36 -15 -68 -83l-76 -163c-30 -64 -59 -137 -71 -170c-3 -3 -7 -4 -12 -4c-4 0 -8 1 -12 4c-9 26 -20 58 -33 86z" />
    <glyph glyph-name="Wsmall" unicode="&#xf777;" horiz-adv-x="708" 
d="M203 95l-137 271c-11 22 -22 33 -47 40l-21 6c-6 5 -6 20 2 25c21 -2 53 -3 75 -3c30 0 55 1 88 3c9 -5 7 -20 1 -25l-13 -3c-27 -6 -21 -12 4 -63l93 -186c16 -32 29 -58 37 -72c8 15 18 34 37 73l17 36c7 14 8 17 0 34l-73 149c-10 20 -21 25 -43 29l-18 3
c-7 4 -6 21 2 25c20 -2 49 -3 77 -3c29 0 56 1 76 3c8 -5 8 -21 1 -25l-12 -3c-18 -5 -20 -9 -9 -32l9 -19c18 -38 26 -55 36 -75c10 20 20 38 30 59l17 37c10 23 6 26 -16 30l-18 3c-8 4 -8 20 1 25c14 -2 40 -3 68 -3c24 0 52 1 69 3c8 -5 8 -21 1 -25l-17 -3
c-33 -6 -43 -27 -57 -50c-14 -24 -41 -73 -52 -93c-8 -15 -9 -18 0 -37l27 -55c20 -41 35 -68 43 -86c8 18 16 33 40 90l71 166c24 57 28 61 0 65l-20 3c-8 7 -6 19 0 25c27 -2 49 -3 75 -3c25 0 47 1 75 3c8 -5 9 -21 1 -25l-28 -6c-30 -6 -36 -16 -67 -83l-95 -205
c-20 -43 -38 -87 -57 -128c-3 -3 -7 -4 -12 -4c-4 0 -8 1 -12 4c-11 29 -72 161 -87 184c-32 -65 -79 -156 -90 -184c-3 -3 -7 -4 -12 -4c-4 0 -8 1 -12 4c-9 26 -38 86 -48 105z" />
    <glyph glyph-name="Xsmall" unicode="&#xf778;" horiz-adv-x="480" 
d="M103 75l88 114c14 19 14 22 1 39l-103 137c-22 29 -29 35 -62 42l-24 5c-7 4 -7 21 2 25c37 -2 63 -3 91 -3c37 0 68 1 88 3c9 -3 11 -20 2 -25l-15 -3c-19 -4 -21 -13 -6 -33l46 -62c17 -23 26 -36 37 -49c10 13 20 26 36 49l49 69c10 14 8 22 -13 26l-16 3
c-10 4 -10 21 0 25c35 -2 59 -3 82 -3s43 1 75 3c9 -4 9 -20 1 -25l-31 -5c-29 -5 -47 -23 -65 -46l-82 -101c-15 -19 -16 -21 -3 -39l108 -146c23 -32 47 -45 65 -48l36 -5c7 -4 7 -21 -1 -25c-36 2 -74 3 -101 3c-30 0 -67 -1 -97 -3c-9 3 -11 21 -3 25l17 3
c27 5 29 7 11 32l-49 68c-21 30 -30 42 -40 53c-10 -12 -20 -25 -39 -53l-50 -72c-12 -17 -5 -24 17 -28l15 -3c8 -5 7 -22 -2 -25c-31 2 -65 3 -89 3c-26 0 -52 -1 -82 -3c-9 4 -10 20 -2 25l31 3c36 3 58 26 77 50z" />
    <glyph glyph-name="Ysmall" unicode="&#xf779;" horiz-adv-x="438" 
d="M182 95v38c0 31 -3 39 -28 85l-73 135c-21 40 -31 49 -57 54l-26 5c-7 6 -5 22 3 25c33 -2 56 -3 92 -3c30 0 53 1 85 3c8 -4 11 -20 1 -25l-14 -3c-22 -5 -25 -11 -9 -42l37 -71c16 -30 30 -57 45 -83c16 27 31 51 48 83l40 73c15 28 17 37 -7 40l-21 3c-9 5 -8 21 2 25
c30 -2 53 -3 76 -3c22 0 43 1 71 3c8 -3 10 -20 2 -25l-24 -5c-31 -6 -36 -12 -67 -62l-62 -100c-36 -57 -38 -67 -38 -96v-54c0 -59 4 -65 47 -70l25 -3c7 -5 6 -22 -2 -25c-44 2 -77 3 -108 3c-32 0 -63 -1 -108 -3c-8 3 -9 20 -2 25l25 3c43 5 47 11 47 70z" />
    <glyph glyph-name="Zsmall" unicode="&#xf77a;" horiz-adv-x="471" 
d="M100 95l150 203c9 13 54 73 63 86c11 16 9 21 -20 21h-91c-76 0 -103 -10 -128 -81c-7 -7 -22 -4 -26 5c14 50 23 86 29 124c3 7 14 6 17 1c0 -20 25 -20 62 -20h203c38 0 58 1 73 3c6 -2 10 -9 7 -15c-16 -15 -66 -71 -111 -132l-115 -157c-8 -11 -66 -84 -66 -92
c0 -5 4 -8 22 -9c14 -1 49 -3 101 -3c58 0 92 4 115 16c20 10 38 32 50 73c8 8 23 1 26 -5c-7 -52 -19 -99 -30 -116c-28 2 -78 3 -146 3h-175c-37 0 -62 -1 -76 -3c-5 3 -7 11 -3 16c14 12 48 53 69 82z" />
    <glyph glyph-name="colonmonetary" unicode="&#x20a1;" horiz-adv-x="584" 
d="M375 596l-155 -522c15 -12 32 -22 50 -29l161 539c-15 7 -32 11 -56 12zM194 99l148 496c-109 -4 -214 -94 -214 -284c0 -88 24 -164 66 -212zM459 567l-157 -531c17 -4 35 -6 54 -6c101 0 148 76 170 129c5 5 18 4 21 -4c-6 -48 -28 -108 -39 -126c-10 -1 -21 -5 -29 -9
c-18 -8 -76 -20 -129 -20c-20 0 -40 1 -58 4l-21 -72c-7 -11 -29 -11 -34 0l23 78c-18 4 -36 9 -53 17l-29 -95c-7 -11 -29 -11 -34 0l33 110c-92 56 -137 150 -137 262c0 105 45 192 106 245c56 48 126 76 205 76l22 74c5 10 28 10 33 0l-22 -74c18 0 39 -2 57 -6l24 80
c6 10 28 10 34 0l-26 -86c14 -3 26 -6 36 -9c9 -3 15 -5 21 -4c1 -20 3 -77 9 -133c-4 -6 -18 -7 -23 -1c-6 36 -22 75 -57 101z" />
    <glyph glyph-name="rupiah" unicode="&#xf6dd;" horiz-adv-x="996" 
d="M190 568v-221c0 -18 0 -28 3 -32c3 -3 17 -5 65 -5c36 0 72 4 99 25c26 20 48 53 48 117c0 75 -47 145 -152 145c-60 0 -63 -3 -63 -29zM114 142v340c0 88 -2 110 -44 114l-31 3c-4 6 -3 20 2 24c78 3 130 4 214 4c56 0 110 -6 155 -28c46 -23 78 -66 78 -133
c0 -89 -70 -139 -117 -157c-3 -6 0 -15 5 -23c76 -121 126 -198 192 -255c8 -7 16 -12 26 -15v252c0 36 -1 41 -25 57l-9 6c-3 4 -3 14 1 17c24 10 68 32 92 50c6 0 10 -2 12 -7c-2 -16 -4 -30 -4 -42c0 -7 3 -15 8 -13c12 5 71 44 131 44c94 0 155 -76 155 -167
c0 -133 -96 -226 -225 -226c-20 0 -46 2 -54 4c-9 -2 -13 -7 -13 -26v-104c0 -61 3 -74 35 -78l37 -5c6 -5 4 -21 -2 -24c-45 2 -72 3 -105 3s-61 -1 -87 -3c-7 3 -9 19 -2 24l19 5c33 9 36 17 36 78v129h-2c-86 0 -130 22 -196 119c-24 35 -63 100 -93 143
c-14 20 -29 30 -67 30c-44 0 -46 -1 -46 -21v-119c0 -99 2 -109 57 -117l20 -3c5 -6 3 -22 -2 -25c-43 2 -75 3 -113 3c-40 0 -72 -1 -117 -3c-5 3 -7 17 -1 25l23 3c55 7 57 18 57 117zM663 254v-160c0 -28 9 -39 28 -55c17 -13 44 -20 69 -20c74 0 119 70 119 160
c0 81 -42 156 -126 156c-40 0 -69 -15 -79 -27c-8 -10 -11 -24 -11 -54z" />
    <glyph glyph-name="Tildesmall" unicode="&#xf6fe;" 
d="M152 598h54c41 0 53 4 77 39c6 3 14 2 17 -6c-6 -26 -24 -58 -38 -73c-15 -13 -27 -16 -49 -16h-53c-45 0 -64 -16 -83 -52c-5 -4 -14 -2 -17 4c3 16 21 65 37 81c16 17 31 23 55 23z" />
    <glyph glyph-name="exclamdownsmall" unicode="&#xf7a1;" horiz-adv-x="200" 
d="M100 -14c-56 0 -53 21 -46 69l32 228c6 7 22 7 28 0l32 -228c7 -48 10 -69 -46 -69zM100 434c32 0 52 -25 52 -55s-20 -51 -52 -51c-27 0 -52 20 -52 51s22 55 52 55z" />
    <glyph glyph-name="centoldstyle" unicode="&#xf7a2;" horiz-adv-x="408" 
d="M204 72l37 299c-70 -3 -127 -55 -127 -157c0 -61 31 -119 90 -142zM275 369l-38 -306c8 -2 18 -3 28 -3c48 0 92 21 112 50c9 0 17 -7 15 -17c-40 -57 -100 -77 -161 -77l-10 -81c-5 -9 -30 -9 -35 0l11 84c-95 14 -157 79 -157 174c0 126 96 198 205 208l8 66
c6 9 30 8 34 0l-8 -64c26 0 53 -3 78 -8c10 -9 17 -23 17 -38c0 -21 -6 -35 -13 -35c-6 0 -10 3 -16 10c-16 18 -42 32 -70 37z" />
    <glyph glyph-name="Lslashsmall" unicode="&#xf6f9;" horiz-adv-x="428" 
d="M290 280l-109 -71v-95c0 -31 2 -59 11 -69c9 -9 25 -16 77 -16c61 0 98 3 127 83c7 7 23 5 26 -4c-5 -42 -19 -92 -30 -111c-63 2 -116 3 -167 3h-82c-32 0 -63 -1 -102 -3c-8 3 -9 20 -2 25l19 3c43 7 47 11 47 80v55l-67 -43c-12 3 -18 16 -16 28l83 54v130
c0 69 -4 73 -47 80l-19 3c-7 5 -6 22 2 25c39 -2 70 -3 102 -3s63 1 96 3c8 -3 9 -20 2 -25l-13 -3c-42 -10 -47 -11 -47 -80v-81l95 62c12 -3 19 -16 14 -30z" />
    <glyph glyph-name="Scaronsmall" unicode="&#xf6fd;" horiz-adv-x="374" 
d="M196 181l-45 23c-48 25 -89 64 -89 120c0 73 56 124 157 124c35 0 59 -9 93 -15c8 -17 15 -55 14 -98c-3 -8 -21 -9 -26 -2c-8 35 -34 86 -93 86s-81 -34 -81 -68c0 -36 27 -58 67 -79l62 -32c36 -18 81 -60 81 -127c0 -78 -64 -127 -163 -127c-61 0 -101 21 -115 31
c-9 14 -21 50 -21 103c4 10 19 11 26 2c8 -36 52 -107 119 -107c51 0 84 26 84 72c0 32 -13 65 -70 94zM107 691l80 -83c11 -11 16 -13 27 -1l80 84c6 0 20 -4 21 -13l-97 -161c-11 -18 -24 -18 -35 0l-98 161c1 9 16 13 22 13z" />
    <glyph glyph-name="Zcaronsmall" unicode="&#xf6ff;" horiz-adv-x="471" 
d="M100 95l150 203c9 13 54 73 63 86c11 16 9 21 -20 21h-91c-76 0 -103 -10 -128 -81c-7 -7 -22 -4 -26 5c14 50 23 86 29 124c3 7 14 6 17 1c0 -20 25 -20 62 -20h203c38 0 58 1 73 3c6 -2 10 -9 7 -15c-16 -15 -66 -71 -111 -132l-115 -157c-8 -11 -66 -84 -66 -92
c0 -5 4 -8 22 -9c14 -1 49 -3 101 -3c58 0 92 4 115 16c20 10 38 32 50 73c8 8 23 1 26 -5c-7 -52 -19 -99 -30 -116c-28 2 -78 3 -146 3h-175c-37 0 -62 -1 -76 -3c-5 3 -7 11 -3 16c14 12 48 53 69 82zM155 681l81 -83c9 -12 15 -13 26 -1l80 84c7 0 20 -4 21 -13
l-97 -161c-11 -18 -24 -18 -35 0l-98 161c1 9 17 13 22 13z" />
    <glyph glyph-name="Dieresissmall" unicode="&#xf7a8;" 
d="M93 522c-28 0 -48 18 -49 49c-1 29 20 52 49 52s50 -24 50 -48c0 -31 -21 -53 -50 -53zM268 522c-28 0 -50 19 -51 50c0 28 22 51 51 51s48 -24 48 -47c0 -31 -19 -54 -48 -54z" />
    <glyph glyph-name="Brevesmall" unicode="&#xf6f4;" 
d="M180 512c-72 0 -113 42 -109 131c6 4 20 4 24 0c13 -53 52 -74 85 -74s72 21 85 74c4 4 18 4 24 0c4 -89 -37 -131 -109 -131z" />
    <glyph glyph-name="Caronsmall" unicode="&#xf6f5;" 
d="M87 671l80 -78c10 -12 15 -12 27 -1l80 79c6 0 20 -4 21 -13l-97 -161c-11 -18 -24 -18 -35 0l-98 161c1 9 16 13 22 13z" />
    <glyph glyph-name="Dotaccentsmall" unicode="&#xf6f7;" 
d="M184 622c30 0 48 -24 48 -52c0 -35 -23 -50 -51 -50c-31 0 -50 22 -50 49c0 33 23 53 53 53z" />
    <glyph glyph-name="Macronsmall" unicode="&#xf7af;" 
d="M283 544h-204c-11 14 -11 43 0 57h204c9 -14 9 -43 0 -57z" />
    <glyph glyph-name="figuredash" unicode="&#x2012;" horiz-adv-x="500" 
d="M32 340h436v-49h-436v49z" />
    <glyph glyph-name="hypheninferior" unicode="&#xf6e5;" horiz-adv-x="245" 
d="M209 10h-175c-12 9 -12 41 0 48h175c12 -7 12 -39 0 -48z" />
    <glyph glyph-name="Ogoneksmall" unicode="&#xf6fb;" 
d="M170 5h23c-12 -29 -18 -62 -18 -89c0 -49 33 -74 70 -74c12 0 29 1 42 8c5 -3 8 -8 8 -17c-25 -31 -63 -42 -99 -42c-53 0 -86 34 -86 85c0 40 26 85 60 129z" />
    <glyph glyph-name="Ringsmall" unicode="&#xf6fc;" 
d="M180 648c50 0 85 -39 85 -81c0 -43 -35 -81 -85 -81s-85 38 -85 81c0 42 35 81 85 81zM135 567c0 -31 20 -53 45 -53c26 0 45 22 45 53c0 30 -19 52 -45 52c-25 0 -45 -22 -45 -52z" />
    <glyph glyph-name="Cedillasmall" unicode="&#xf7b8;" 
d="M204 0h31l-34 -55c-4 -7 -3 -14 8 -21c24 -16 41 -37 41 -63c0 -45 -46 -78 -92 -78c-33 0 -51 13 -51 31c0 10 8 23 22 23c17 0 34 -26 46 -26c11 0 24 7 24 28c0 23 -24 47 -55 59v5z" />
    <glyph glyph-name="questiondownsmall" unicode="&#xf7bf;" horiz-adv-x="276" 
d="M174 162l-63 -27c-24 -10 -29 -20 -29 -28c0 -44 66 -51 119 -51c7 0 30 -10 30 -35c0 -18 -12 -35 -39 -35c-73 0 -146 71 -146 143c0 31 18 53 45 66l53 25c20 10 31 18 31 32c0 10 -4 27 -9 38c4 8 14 10 21 6c12 -16 35 -50 35 -77c0 -32 -22 -46 -48 -57zM171 448
c32 0 52 -25 52 -55s-20 -51 -52 -51c-27 0 -52 20 -52 51s22 55 52 55z" />
    <glyph glyph-name="oneeighth" unicode="&#x215b;" horiz-adv-x="780" 
d="M597 393c68 0 121 -32 121 -96c0 -44 -43 -71 -74 -86c45 -23 85 -54 85 -114c0 -66 -58 -104 -139 -104c-69 0 -136 27 -136 100c0 51 43 86 89 101v2c-39 16 -73 48 -73 92c0 63 56 105 127 105zM571 182c-42 -16 -57 -51 -57 -86c0 -39 33 -77 80 -77
c46 0 76 28 76 68c0 47 -44 78 -99 95zM617 224c26 14 45 37 45 75c0 34 -28 68 -68 68c-41 0 -67 -29 -67 -65c0 -39 44 -63 90 -78zM130 -14c147 223 293 445 436 668c12 0 24 -7 31 -23c-149 -224 -295 -447 -440 -671c-17 0 -26 11 -27 26zM110 333v193
c0 37 -2 54 -31 57l-31 3c-6 4 -6 15 -1 19c55 9 95 25 122 35c3 0 7 -1 7 -5c-2 -21 -2 -49 -2 -73v-229c0 -50 1 -60 42 -65l17 -2c5 -4 5 -18 -1 -21c-30 1 -61 2 -92 2c-28 0 -60 -1 -88 -2c-6 3 -6 17 -1 21l17 2c41 5 42 15 42 65z" />
    <glyph glyph-name="threeeighths" unicode="&#x215c;" horiz-adv-x="780" 
d="M622 393c68 0 121 -32 121 -96c0 -44 -43 -71 -74 -86c45 -23 85 -54 85 -114c0 -66 -58 -104 -139 -104c-69 0 -136 27 -136 100c0 51 43 86 89 101v2c-39 16 -73 48 -73 92c0 63 56 105 127 105zM596 182c-42 -16 -57 -51 -57 -86c0 -39 33 -77 80 -77
c46 0 76 28 76 68c0 47 -44 78 -99 95zM642 224c26 14 45 37 45 75c0 34 -28 68 -68 68c-41 0 -67 -29 -67 -65c0 -39 44 -63 90 -78zM168 -14c147 223 293 445 436 668c12 0 24 -7 31 -23c-149 -224 -295 -447 -440 -671c-17 0 -26 11 -27 26zM146 448
c-32 0 -56 -14 -72 -29c-10 5 -17 14 -13 27c24 10 79 33 106 51c16 11 31 30 31 56c0 35 -25 53 -53 53c-32 0 -62 -21 -85 -58c-9 -1 -15 4 -17 11c25 50 73 81 129 81c58 0 96 -34 96 -71c0 -29 -15 -53 -73 -80c-5 -6 0 -9 8 -10c51 -6 98 -35 98 -95
c0 -45 -23 -89 -69 -123c-53 -39 -111 -53 -144 -53s-71 9 -71 39c0 18 14 32 33 32c15 0 26 -15 33 -26s17 -18 32 -18c40 0 114 43 114 124c0 44 -23 89 -83 89z" />
    <glyph glyph-name="fiveeighths" unicode="&#x215d;" horiz-adv-x="780" 
d="M624 393c68 0 121 -32 121 -96c0 -44 -43 -71 -74 -86c45 -23 85 -54 85 -114c0 -66 -58 -104 -139 -104c-69 0 -136 27 -136 100c0 51 43 86 89 101v2c-39 16 -73 48 -73 92c0 63 56 105 127 105zM598 182c-42 -16 -57 -51 -57 -86c0 -39 33 -77 80 -77
c46 0 76 28 76 68c0 47 -44 78 -99 95zM644 224c26 14 45 37 45 75c0 34 -28 68 -68 68c-41 0 -67 -29 -67 -65c0 -39 44 -63 90 -78zM166 -14c147 223 293 445 436 668c12 0 24 -7 31 -23c-149 -224 -295 -447 -440 -671c-17 0 -26 11 -27 26zM260 589l-130 -16
c-23 -3 -24 -6 -28 -15l-9 -21c-3 -7 -1 -14 14 -15l10 -1c87 -9 181 -37 181 -134c0 -110 -134 -175 -246 -177c-9 4 -12 22 -3 30c108 1 191 56 191 129c0 81 -98 104 -179 104c-11 0 -13 8 -6 27l37 106c4 11 5 15 16 16l171 21c4 -1 7 -3 7 -5c-5 -15 -12 -32 -26 -49z
" />
    <glyph glyph-name="seveneighths" unicode="&#x215e;" horiz-adv-x="780" 
d="M621 393c68 0 121 -32 121 -96c0 -44 -43 -71 -74 -86c45 -23 85 -54 85 -114c0 -66 -58 -104 -139 -104c-69 0 -136 27 -136 100c0 51 43 86 89 101v2c-39 16 -73 48 -73 92c0 63 56 105 127 105zM595 182c-42 -16 -57 -51 -57 -86c0 -39 33 -77 80 -77
c46 0 76 28 76 68c0 47 -44 78 -99 95zM641 224c26 14 45 37 45 75c0 34 -28 68 -68 68c-41 0 -67 -29 -67 -65c0 -39 44 -63 90 -78zM154 -14c147 223 293 445 436 668c12 0 24 -7 31 -23c-149 -224 -295 -447 -440 -671c-17 0 -26 11 -27 26zM260 582h-123
c-41 0 -53 -1 -70 -32c-8 -4 -17 0 -19 7c11 29 20 55 25 78c21 -1 35 -2 72 -2h115c37 0 83 0 93 2c3 -1 4 -4 4 -7c-21 -26 -40 -56 -64 -100l-172 -311c-11 -3 -28 3 -28 14l168 303c12 22 32 48 -1 48z" />
    <glyph glyph-name="onethird" unicode="&#x2153;" horiz-adv-x="780" 
d="M100 333v193c0 37 -2 54 -31 57l-31 3c-6 4 -6 15 -1 19c55 9 95 25 122 35c3 0 7 -1 7 -5c-2 -21 -2 -49 -2 -73v-229c0 -50 1 -60 42 -65l17 -2c5 -4 5 -18 -1 -21c-30 1 -61 2 -92 2c-28 0 -60 -1 -88 -2c-6 3 -6 17 -1 21l17 2c41 5 42 15 42 65zM593 201
c-32 0 -56 -14 -72 -29c-10 5 -17 14 -13 27c24 10 79 33 106 51c16 11 31 30 31 56c0 35 -25 53 -53 53c-32 0 -62 -21 -85 -58c-9 -1 -15 4 -17 11c25 50 73 81 129 81c58 0 96 -34 96 -71c0 -29 -15 -53 -73 -80c-5 -6 0 -9 8 -10c51 -6 98 -35 98 -95
c0 -45 -23 -89 -69 -123c-53 -39 -111 -53 -144 -53s-71 9 -71 39c0 18 14 32 33 32c15 0 26 -15 33 -26s17 -18 32 -18c40 0 114 43 114 124c0 44 -23 89 -83 89zM147 -14c147 223 293 445 436 668c12 0 24 -7 31 -23c-149 -224 -295 -447 -440 -671c-17 0 -26 11 -27 26z
" />
    <glyph glyph-name="twothirds" unicode="&#x2154;" horiz-adv-x="780" 
d="M125 295h71c47 0 73 3 95 36c7 3 15 1 19 -7c-16 -35 -26 -67 -39 -79c-25 1 -82 2 -113 2h-72c-38 0 -60 -1 -75 -2c-5 4 -7 11 -3 16c32 20 56 40 104 88c42 42 92 103 92 166c0 52 -30 84 -75 84c-37 0 -67 -24 -90 -63c-8 -5 -19 1 -19 9c27 62 77 95 139 95
c73 0 118 -43 118 -103c0 -42 -18 -80 -76 -138l-56 -56c-25 -25 -34 -34 -34 -40s7 -8 14 -8zM609 201c-32 0 -56 -14 -72 -29c-10 5 -17 14 -13 27c24 10 79 33 106 51c16 11 31 30 31 56c0 35 -25 53 -53 53c-32 0 -62 -21 -85 -58c-9 -1 -15 4 -17 11
c25 50 73 81 129 81c58 0 96 -34 96 -71c0 -29 -15 -53 -73 -80c-5 -6 0 -9 8 -10c51 -6 98 -35 98 -95c0 -45 -23 -89 -69 -123c-53 -39 -111 -53 -144 -53s-71 9 -71 39c0 18 14 32 33 32c15 0 26 -15 33 -26s17 -18 32 -18c40 0 114 43 114 124c0 44 -23 89 -83 89z
M183 -14c147 223 293 445 436 668c12 0 24 -7 31 -23c-149 -224 -295 -447 -440 -671c-17 0 -26 11 -27 26z" />
    <glyph glyph-name="zerosuperior" unicode="&#x2070;" 
d="M181 708c103 0 148 -107 148 -200c0 -97 -45 -200 -148 -200c-104 0 -149 103 -149 200c0 93 45 200 149 200zM181 682c-73 0 -74 -125 -74 -176s5 -172 74 -172c68 0 73 121 73 172s-9 176 -73 176z" />
    <glyph glyph-name="foursuperior" unicode="&#x2074;" 
d="M191 431h-155c-5 0 -9 4 -9 10c0 7 2 11 9 20l213 274c7 9 11 12 21 12c12 0 22 -1 22 -5c0 -2 -1 -4 -2 -6l-206 -264c-10 -12 -1 -12 18 -12h90c16 0 18 2 18 16v109c0 4 1 9 6 12c9 5 31 11 47 11c11 0 11 -7 11 -19v-115c0 -12 2 -14 15 -14h37c8 -5 8 -23 0 -29h-33
c-18 0 -19 -2 -19 -16v-14c0 -56 -1 -61 39 -65l18 -2c4 -6 4 -18 -2 -21c-21 1 -44 2 -87 2c-37 0 -76 -1 -89 -2c-6 3 -7 15 -2 21l18 2c41 5 41 11 41 65v12c0 15 -1 18 -19 18z" />
    <glyph glyph-name="fivesuperior" unicode="&#x2075;" 
d="M269 657l-130 -16c-23 -3 -24 -6 -28 -15l-9 -21c-3 -7 -1 -14 14 -15l10 -1c87 -9 181 -37 181 -134c0 -110 -134 -175 -246 -177c-9 4 -12 22 -3 30c108 1 191 56 191 129c0 81 -98 104 -179 104c-11 0 -13 8 -6 27l37 106c4 11 5 15 16 16l171 21c4 -1 7 -3 7 -5
c-5 -15 -12 -32 -26 -49z" />
    <glyph glyph-name="sixsuperior" unicode="&#x2076;" 
d="M189 334c40 0 70 27 70 85c0 54 -30 99 -77 99c-15 0 -24 -2 -32 -4c-5 2 -8 10 -4 16c22 13 45 23 73 23c66 0 110 -54 110 -114c0 -77 -65 -131 -149 -131c-98 0 -149 70 -149 150c0 55 20 128 93 189c65 54 153 79 198 84c8 -2 10 -15 4 -19c-41 -13 -92 -31 -139 -71
c-56 -48 -82 -108 -82 -181c0 -70 33 -126 84 -126z" />
    <glyph glyph-name="sevensuperior" unicode="&#x2077;" 
d="M238 650h-123c-41 0 -53 -1 -70 -32c-8 -4 -17 0 -19 7c11 29 20 55 25 78c21 -1 35 -2 72 -2h115c37 0 83 0 93 2c3 -1 4 -4 4 -7c-21 -26 -40 -56 -64 -100l-172 -311c-11 -3 -28 3 -28 14l168 303c12 22 32 48 -1 48z" />
    <glyph glyph-name="eightsuperior" unicode="&#x2078;" 
d="M179 308c-69 0 -136 27 -136 100c0 51 43 86 89 101v2c-39 16 -73 48 -73 92c0 63 56 105 127 105c68 0 121 -32 121 -96c0 -44 -43 -71 -74 -86c45 -23 85 -54 85 -114c0 -66 -58 -104 -139 -104zM160 497c-42 -16 -57 -51 -57 -86c0 -39 33 -77 80 -77
c46 0 76 28 76 68c0 47 -44 78 -99 95zM206 539c26 14 45 37 45 75c0 34 -28 68 -68 68c-41 0 -67 -29 -67 -65c0 -39 44 -63 90 -78z" />
    <glyph glyph-name="ninesuperior" unicode="&#x2079;" 
d="M152 351c56 35 101 98 101 205c0 52 -22 126 -83 126c-36 0 -71 -30 -71 -78c0 -44 27 -93 78 -93c14 0 24 1 33 2c4 -3 5 -11 2 -15c-15 -12 -38 -24 -67 -24c-61 0 -111 40 -111 104c0 76 66 130 150 130c88 0 146 -65 143 -165c-2 -71 -33 -137 -108 -194
c-46 -34 -116 -54 -167 -61c-8 2 -10 15 -5 20c41 11 78 26 105 43z" />
    <glyph glyph-name="zeroinferior" unicode="&#x2080;" 
d="M181 229c103 0 148 -107 148 -200c0 -97 -45 -200 -148 -200c-104 0 -149 103 -149 200c0 93 45 200 149 200zM181 203c-73 0 -74 -125 -74 -176s5 -172 74 -172c68 0 73 121 73 172s-9 176 -73 176z" />
    <glyph glyph-name="oneinferior" unicode="&#x2081;" 
d="M153 -78v193c0 37 -2 54 -31 57l-31 3c-6 4 -6 15 -1 19c55 9 95 25 122 35c3 0 7 -1 7 -5c-2 -21 -2 -49 -2 -73v-229c0 -50 1 -60 42 -65l17 -2c5 -4 5 -18 -1 -21c-30 1 -61 2 -92 2c-28 0 -60 -1 -88 -2c-6 3 -6 17 -1 21l17 2c41 5 42 15 42 65z" />
    <glyph glyph-name="twoinferior" unicode="&#x2082;" 
d="M148 -116h71c47 0 73 3 95 36c7 3 15 1 19 -7c-16 -35 -26 -67 -39 -79c-25 1 -82 2 -113 2h-72c-38 0 -60 -1 -75 -2c-2 2 -5 4 -5 7s0 6 2 9c32 20 56 40 104 88c42 42 92 103 92 166c0 52 -30 84 -75 84c-37 0 -67 -24 -90 -63c-8 -5 -19 1 -19 9c27 62 77 95 139 95
c73 0 118 -43 118 -103c0 -42 -18 -80 -76 -138l-56 -56c-25 -25 -34 -34 -34 -40s7 -8 14 -8z" />
    <glyph glyph-name="threeinferior" unicode="&#x2083;" 
d="M254 -52c0 44 -23 89 -83 89c-32 0 -56 -14 -72 -29c-10 5 -17 14 -13 27c24 10 79 33 106 51c16 11 31 30 31 56c0 35 -25 53 -53 53c-32 0 -62 -21 -85 -58c-9 -1 -15 4 -17 11c25 50 73 81 129 81c58 0 96 -34 96 -71c0 -29 -15 -53 -73 -80c-5 -6 0 -10 8 -10
c51 0 98 -35 98 -95c0 -45 -23 -89 -69 -123c-53 -39 -111 -53 -144 -53s-71 9 -71 39c0 18 14 32 33 32c15 0 26 -15 33 -26s17 -18 32 -18c40 0 114 43 114 124z" />
    <glyph glyph-name="fourinferior" unicode="&#x2084;" 
d="M191 -48h-155c-5 0 -9 4 -9 10c0 7 2 11 9 20l213 274c7 9 11 12 21 12c12 0 22 -1 22 -5c0 -2 -1 -4 -2 -6l-206 -264c-10 -12 -1 -12 18 -12h90c16 0 18 2 18 16v109c0 4 1 9 6 12c9 5 31 11 47 11c11 0 11 -7 11 -19v-115c0 -12 2 -14 15 -14h37c8 -5 8 -23 0 -29h-33
c-18 0 -19 -2 -19 -16v-14c0 -56 -1 -61 39 -65l18 -2c4 -6 4 -18 -2 -21c-21 1 -44 2 -87 2c-37 0 -76 -1 -89 -2c-6 3 -7 15 -2 21l18 2c41 5 41 11 41 65v12c0 15 -1 18 -19 18z" />
    <glyph glyph-name="fiveinferior" unicode="&#x2085;" 
d="M269 178l-130 -16c-23 -3 -24 -6 -28 -15l-9 -21c-3 -7 -1 -14 14 -15l10 -1c87 -9 181 -37 181 -134c0 -110 -134 -175 -246 -177c-9 4 -12 22 -3 30c108 1 191 56 191 129c0 81 -98 104 -179 104c-11 0 -13 8 -6 27l37 106c4 11 5 15 16 16l171 21c4 -1 7 -3 7 -5
c-5 -15 -12 -32 -26 -49z" />
    <glyph glyph-name="sixinferior" unicode="&#x2086;" 
d="M189 -145c40 0 70 27 70 85c0 54 -30 99 -77 99c-15 0 -24 -2 -32 -4c-5 2 -8 10 -4 16c22 13 45 23 73 23c66 0 110 -54 110 -114c0 -77 -65 -131 -149 -131c-98 0 -149 70 -149 150c0 55 20 128 93 189c65 54 153 79 198 84c8 -2 10 -15 4 -19
c-41 -13 -92 -31 -139 -71c-56 -48 -82 -108 -82 -181c0 -70 33 -126 84 -126z" />
    <glyph glyph-name="seveninferior" unicode="&#x2087;" 
d="M238 171h-123c-41 0 -53 -1 -70 -32c-8 -4 -17 0 -19 7c11 29 20 55 25 78c21 -1 35 -2 72 -2h115c37 0 83 0 93 2c3 -1 4 -4 4 -7c-21 -26 -40 -56 -64 -100l-172 -311c-11 -3 -28 3 -28 14l168 303c12 22 32 48 -1 48z" />
    <glyph glyph-name="eightinferior" unicode="&#x2088;" 
d="M179 -171c-69 0 -136 27 -136 100c0 51 43 86 89 101v2c-39 16 -73 48 -73 92c0 63 56 105 127 105c68 0 121 -32 121 -96c0 -44 -43 -71 -74 -86c45 -23 85 -54 85 -114c0 -66 -58 -104 -139 -104zM160 18c-42 -16 -57 -51 -57 -86c0 -39 33 -77 80 -77
c46 0 76 28 76 68c0 47 -44 78 -99 95zM206 60c26 14 45 37 45 75c0 34 -28 68 -68 68c-41 0 -67 -29 -67 -65c0 -39 44 -63 90 -78z" />
    <glyph glyph-name="nineinferior" unicode="&#x2089;" 
d="M152 -128c56 35 101 98 101 205c0 52 -22 126 -83 126c-36 0 -71 -30 -71 -78c0 -44 27 -93 78 -93c14 0 24 1 33 2c4 -3 5 -11 2 -15c-15 -12 -38 -24 -67 -24c-61 0 -111 40 -111 104c0 76 66 130 150 130c88 0 146 -65 143 -165c-2 -71 -33 -137 -108 -194
c-46 -34 -116 -54 -167 -61c-8 2 -10 15 -5 20c41 11 78 26 105 43z" />
    <glyph glyph-name="centinferior" unicode="&#xf6df;" 
d="M167 -99l41 272c-71 0 -131 -39 -131 -138c0 -57 30 -114 90 -134zM239 169l-41 -277c9 -1 18 -2 27 -2c48 0 82 22 104 52c8 -1 14 -8 14 -15c-39 -62 -97 -80 -151 -80h-1l-10 -69c-6 -7 -25 -7 -33 0l11 72c-79 11 -141 68 -141 162c0 117 93 183 194 191l8 57
c6 5 27 5 32 0l-8 -57c20 0 42 -3 64 -7c11 -9 19 -23 19 -38c0 -18 -6 -28 -13 -28c-6 0 -10 3 -14 7c-15 16 -34 26 -61 32z" />
    <glyph glyph-name="dollarinferior" unicode="&#xf6e3;" 
d="M179 71l18 132c-68 -1 -85 -38 -85 -62c0 -34 24 -54 67 -70zM201 -1l-20 -144c61 1 88 31 88 69c0 23 -8 52 -68 75zM149 -142l21 152c-73 24 -110 60 -110 112c0 61 52 105 141 107l7 52c6 7 26 6 32 0l-7 -55c23 -2 45 -8 68 -12c7 -14 15 -45 16 -78
c-4 -6 -15 -7 -21 -2c-9 23 -23 55 -67 65l-20 -140l19 -7c58 -21 97 -55 97 -110c0 -66 -57 -111 -148 -112l-9 -61c-5 -9 -28 -9 -32 0l9 63c-47 4 -78 18 -90 24c-12 12 -20 53 -20 90c4 6 15 7 21 2c10 -34 36 -79 93 -90z" />
    <glyph glyph-name="periodinferior" unicode="&#xf6e7;" horiz-adv-x="180" 
d="M90 -61c33 0 54 -26 54 -57s-21 -53 -54 -53c-28 0 -54 20 -54 53c0 32 23 57 54 57z" />
    <glyph glyph-name="commainferior" unicode="&#xf6e1;" horiz-adv-x="180" 
d="M85 -47c33 0 68 -31 68 -80c0 -70 -49 -105 -113 -120c-12 3 -16 16 -8 26c28 6 70 25 70 57c0 34 -44 44 -49 47c-11 6 -17 15 -17 28c0 23 17 42 49 42z" />
    <glyph glyph-name="Agravesmall" unicode="&#xf7e0;" horiz-adv-x="457" 
d="M258 155h-95c-23 0 -26 -1 -34 -24l-23 -64c-11 -32 -8 -36 11 -40l27 -5c8 -5 7 -23 -3 -25c-25 2 -51 3 -79 3s-52 -2 -70 -3c-9 4 -9 20 -2 25l23 5c31 7 42 18 62 66l96 230c17 41 24 65 26 84c18 7 37 26 42 38c8 3 14 1 16 -5c4 -10 20 -62 43 -123l90 -239
c12 -33 21 -46 57 -53l16 -3c9 -5 7 -23 -3 -25c-26 2 -49 3 -83 3c-36 0 -65 -1 -90 -3c-10 3 -11 21 -2 25l20 3c26 4 25 10 13 41l-24 65c-8 23 -11 24 -34 24zM173 187h69c26 0 29 2 18 31l-31 85c-8 23 -12 31 -15 36h-2c-3 -4 -7 -13 -16 -34l-36 -89
c-11 -27 -9 -29 13 -29zM242 482l-110 111c-11 12 -21 25 -21 33c0 7 5 19 21 29c13 11 24 14 32 13c7 0 15 -12 22 -24l79 -147c-2 -8 -15 -16 -23 -15z" />
    <glyph glyph-name="Aacutesmall" unicode="&#xf7e1;" horiz-adv-x="457" 
d="M258 155h-95c-23 0 -26 -1 -34 -24l-23 -64c-11 -32 -8 -36 11 -40l27 -5c8 -5 7 -23 -3 -25c-25 2 -51 3 -79 3s-52 -2 -70 -3c-9 4 -9 20 -2 25l23 5c31 7 42 18 62 66l96 230c17 41 24 65 26 84c18 7 37 26 42 38c8 3 14 1 16 -5c4 -10 20 -62 43 -123l90 -239
c12 -33 21 -46 57 -53l16 -3c9 -5 7 -23 -3 -25c-26 2 -49 3 -83 3c-36 0 -65 -1 -90 -3c-10 3 -11 21 -2 25l20 3c26 4 25 10 13 41l-24 65c-8 23 -11 24 -34 24zM173 187h69c26 0 29 2 18 31l-31 85c-8 23 -12 31 -15 36h-2c-3 -4 -7 -13 -16 -34l-36 -89
c-11 -27 -9 -29 13 -29zM323 588l-110 -111c-8 -1 -21 6 -23 15l79 147c8 12 15 24 23 24c7 1 18 -2 31 -13c16 -10 22 -22 22 -29c0 -8 -11 -21 -22 -33z" />
    <glyph glyph-name="Acircumflexsmall" unicode="&#xf7e2;" horiz-adv-x="457" 
d="M258 155h-95c-23 0 -26 -1 -34 -24l-23 -64c-11 -32 -8 -36 11 -40l27 -5c8 -5 7 -23 -3 -25c-25 2 -51 3 -79 3s-52 -2 -70 -3c-9 4 -9 20 -2 25l23 5c31 7 42 18 62 66l96 230c17 41 24 65 26 84c18 7 37 26 42 38c8 3 14 1 16 -5c4 -10 20 -62 43 -123l90 -239
c12 -33 21 -46 57 -53l16 -3c9 -5 7 -23 -3 -25c-26 2 -49 3 -83 3c-36 0 -65 -1 -90 -3c-10 3 -11 21 -2 25l20 3c26 4 25 10 13 41l-24 65c-8 23 -11 24 -34 24zM173 187h69c26 0 29 2 18 31l-31 85c-8 23 -12 31 -15 36h-2c-3 -4 -7 -13 -16 -34l-36 -89
c-11 -27 -9 -29 13 -29zM328 482l-80 78c-11 10 -16 11 -27 1l-80 -79c-7 0 -20 3 -22 11l97 163c11 18 25 18 36 0l98 -163c-3 -8 -17 -11 -22 -11z" />
    <glyph glyph-name="Atildesmall" unicode="&#xf7e3;" horiz-adv-x="457" 
d="M258 155h-95c-23 0 -26 -1 -34 -24l-23 -64c-11 -32 -8 -36 11 -40l27 -5c8 -5 7 -23 -3 -25c-25 2 -51 3 -79 3s-52 -2 -70 -3c-9 4 -9 20 -2 25l23 5c31 7 42 18 62 66l96 230c17 41 24 65 26 84c18 7 37 26 42 38c8 3 14 1 16 -5c4 -10 20 -62 43 -123l90 -239
c12 -33 21 -46 57 -53l16 -3c9 -5 7 -23 -3 -25c-26 2 -49 3 -83 3c-36 0 -65 -1 -90 -3c-10 3 -11 21 -2 25l20 3c26 4 25 10 13 41l-24 65c-8 23 -11 24 -34 24zM173 187h69c26 0 29 2 18 31l-31 85c-8 23 -12 31 -15 36h-2c-3 -4 -7 -13 -16 -34l-36 -89
c-11 -27 -9 -29 13 -29zM211 583h54c41 0 53 4 77 39c6 3 14 2 17 -6c-6 -26 -24 -58 -38 -73c-15 -13 -27 -16 -49 -16h-53c-45 0 -64 -16 -83 -52c-5 -4 -14 -2 -17 4c3 16 21 65 37 81c16 17 31 23 55 23z" />
    <glyph glyph-name="Adieresissmall" unicode="&#xf7e4;" horiz-adv-x="457" 
d="M258 155h-95c-23 0 -26 -1 -34 -24l-23 -64c-11 -32 -8 -36 11 -40l27 -5c8 -5 7 -23 -3 -25c-25 2 -51 3 -79 3s-52 -2 -70 -3c-9 4 -9 20 -2 25l23 5c31 7 42 18 62 66l96 230c17 41 24 65 26 84c18 7 37 26 42 38c8 3 14 1 16 -5c4 -10 20 -62 43 -123l90 -239
c12 -33 21 -46 57 -53l16 -3c9 -5 7 -23 -3 -25c-26 2 -49 3 -83 3c-36 0 -65 -1 -90 -3c-10 3 -11 21 -2 25l20 3c26 4 25 10 13 41l-24 65c-8 23 -11 24 -34 24zM173 187h69c26 0 29 2 18 31l-31 85c-8 23 -12 31 -15 36h-2c-3 -4 -7 -13 -16 -34l-36 -89
c-11 -27 -9 -29 13 -29zM149 512c-28 0 -48 18 -49 49c-1 29 20 52 49 52s50 -24 50 -48c0 -31 -21 -53 -50 -53zM324 512c-28 0 -50 19 -51 50c0 28 22 51 51 51s48 -24 48 -47c0 -31 -19 -54 -48 -54z" />
    <glyph glyph-name="Aringsmall" unicode="&#xf7e5;" horiz-adv-x="457" 
d="M258 155h-95c-23 0 -26 -1 -34 -24l-23 -64c-11 -32 -8 -36 11 -40l27 -5c8 -5 7 -23 -3 -25c-25 2 -51 3 -79 3s-52 -2 -70 -3c-9 4 -9 20 -2 25l23 5c31 7 42 18 62 66l96 230c17 41 24 65 26 84c18 7 37 26 42 38c8 3 14 1 16 -5c4 -10 20 -62 43 -123l90 -239
c12 -33 21 -46 57 -53l16 -3c9 -5 7 -23 -3 -25c-26 2 -49 3 -83 3c-36 0 -65 -1 -90 -3c-10 3 -11 21 -2 25l20 3c26 4 25 10 13 41l-24 65c-8 23 -11 24 -34 24zM173 187h69c26 0 29 2 18 31l-31 85c-8 23 -12 31 -15 36h-2c-3 -4 -7 -13 -16 -34l-36 -89
c-11 -27 -9 -29 13 -29zM229 648c50 0 85 -39 85 -81c0 -43 -35 -81 -85 -81s-85 38 -85 81c0 42 35 81 85 81zM184 567c0 -31 20 -53 45 -53c26 0 45 22 45 53c0 30 -19 52 -45 52c-25 0 -45 -22 -45 -52z" />
    <glyph glyph-name="AEsmall" unicode="&#xf7e6;" horiz-adv-x="622" 
d="M278 434h182c44 0 84 1 93 3c1 -12 6 -59 11 -102c-4 -8 -20 -9 -26 -2c-6 26 -12 39 -18 48c-16 24 -61 24 -85 24h-44c-35 0 -36 -1 -36 -32v-111c0 -18 0 -20 19 -20h47c53 0 58 8 66 38l5 19c5 7 20 6 25 -2c-2 -29 -2 -47 -2 -70c0 -25 0 -43 2 -72
c-5 -8 -20 -9 -25 -2l-5 19c-8 30 -13 38 -66 38h-47c-19 0 -19 -3 -19 -23v-72c0 -30 2 -61 11 -72c9 -10 27 -14 84 -14c64 0 101 3 130 83c7 7 23 5 26 -4c-5 -42 -19 -92 -30 -111c-63 2 -116 3 -170 3h-86c-28 0 -59 -1 -98 -3c-12 3 -13 20 -6 25l22 3
c43 6 47 11 47 80v80c0 23 -1 25 -25 25h-75c-18 0 -19 -1 -27 -16c-34 -64 -56 -109 -71 -141c-7 -15 -7 -21 9 -24l40 -7c5 -4 6 -21 -3 -25c-22 2 -53 3 -84 3c-27 0 -49 -1 -75 -3c-9 3 -11 19 -3 25l25 6c16 4 31 10 51 44c41 70 127 223 167 303c9 18 9 23 -8 27
l-42 10c-7 7 -6 21 2 25c37 -2 71 -3 112 -3zM197 242h63c24 0 25 2 25 25v113c0 11 -2 23 -4 27h-6c-5 -3 -7 -7 -20 -30l-68 -123c-5 -9 -7 -12 10 -12z" />
    <glyph glyph-name="Ccedillasmall" unicode="&#xf7e7;" horiz-adv-x="501" 
d="M230 -97l52 84c-53 3 -105 15 -149 45c-54 37 -95 98 -95 178c0 81 34 141 84 180c49 38 118 58 195 58c65 0 129 -19 137 -19c0 -21 3 -70 9 -110c-4 -8 -19 -10 -26 -2c-15 55 -49 102 -139 102c-86 0 -171 -58 -171 -194c0 -134 86 -210 180 -210s133 75 144 101
c5 9 21 9 26 -1c-5 -44 -21 -90 -33 -108c-28 -5 -64 -20 -131 -21l-26 -41c-4 -7 -3 -14 8 -21c24 -16 41 -37 41 -63c0 -45 -46 -78 -92 -78c-33 0 -51 13 -51 31c0 10 8 23 22 23c17 0 34 -26 46 -26c11 0 24 7 24 28c0 23 -24 47 -55 59v5z" />
    <glyph glyph-name="Egravesmall" unicode="&#xf7e8;" horiz-adv-x="448" 
d="M105 105v224c0 69 -4 72 -42 80l-14 3c-7 4 -6 21 2 25c29 -2 60 -3 93 -3h142c44 0 84 1 93 3c1 -12 6 -59 11 -102c-4 -8 -20 -9 -26 -2c-6 26 -12 39 -18 48c-16 24 -61 24 -85 24h-44c-35 0 -36 -1 -36 -32v-111c0 -18 0 -20 19 -20h47c53 0 58 8 66 38l5 19
c5 7 20 6 25 -2c-2 -29 -2 -47 -2 -70c0 -25 0 -43 2 -72c-5 -8 -20 -9 -25 -2l-5 19c-8 30 -13 38 -66 38h-47c-19 0 -19 -3 -19 -23v-72c0 -30 2 -61 11 -72c9 -10 27 -14 84 -14c64 0 101 3 130 83c7 7 23 5 26 -4c-5 -42 -19 -92 -30 -111c-63 2 -116 3 -170 3h-88
c-32 0 -63 -1 -111 -3c-8 3 -9 20 -2 25l27 3c43 5 47 11 47 80zM255 482l-109 110c-11 12 -22 25 -22 32c0 8 6 20 22 29c13 11 23 14 31 13c7 0 16 -11 22 -23l78 -146c-2 -9 -15 -16 -22 -15z" />
    <glyph glyph-name="Eacutesmall" unicode="&#xf7e9;" horiz-adv-x="448" 
d="M105 105v224c0 69 -4 72 -42 80l-14 3c-7 4 -6 21 2 25c29 -2 60 -3 93 -3h142c44 0 84 1 93 3c1 -12 6 -59 11 -102c-4 -8 -20 -9 -26 -2c-6 26 -12 39 -18 48c-16 24 -61 24 -85 24h-44c-35 0 -36 -1 -36 -32v-111c0 -18 0 -20 19 -20h47c53 0 58 8 66 38l5 19
c5 7 20 6 25 -2c-2 -29 -2 -47 -2 -70c0 -25 0 -43 2 -72c-5 -8 -20 -9 -25 -2l-5 19c-8 30 -13 38 -66 38h-47c-19 0 -19 -3 -19 -23v-72c0 -30 2 -61 11 -72c9 -10 27 -14 84 -14c64 0 101 3 130 83c7 7 23 5 26 -4c-5 -42 -19 -92 -30 -111c-63 2 -116 3 -170 3h-88
c-32 0 -63 -1 -111 -3c-8 3 -9 20 -2 25l27 3c43 5 47 11 47 80zM330 603l-110 -111c-8 -1 -21 6 -23 15l79 147c8 12 15 24 23 24c7 1 18 -2 31 -13c16 -10 22 -22 22 -29c0 -8 -11 -21 -22 -33z" />
    <glyph glyph-name="Ecircumflexsmall" unicode="&#xf7ea;" horiz-adv-x="448" 
d="M105 105v224c0 69 -4 72 -42 80l-14 3c-7 4 -6 21 2 25c29 -2 60 -3 93 -3h142c44 0 84 1 93 3c1 -12 6 -59 11 -102c-4 -8 -20 -9 -26 -2c-6 26 -12 39 -18 48c-16 24 -61 24 -85 24h-44c-35 0 -36 -1 -36 -32v-111c0 -18 0 -20 19 -20h47c53 0 58 8 66 38l5 19
c5 7 20 6 25 -2c-2 -29 -2 -47 -2 -70c0 -25 0 -43 2 -72c-5 -8 -20 -9 -25 -2l-5 19c-8 30 -13 38 -66 38h-47c-19 0 -19 -3 -19 -23v-72c0 -30 2 -61 11 -72c9 -10 27 -14 84 -14c64 0 101 3 130 83c7 7 23 5 26 -4c-5 -42 -19 -92 -30 -111c-63 2 -116 3 -170 3h-88
c-32 0 -63 -1 -111 -3c-8 3 -9 20 -2 25l27 3c43 5 47 11 47 80zM317 482l-78 76c-11 10 -17 12 -26 1l-78 -77c-7 0 -20 3 -22 11l96 158c10 17 23 18 34 0l95 -158c-2 -8 -16 -11 -21 -11z" />
    <glyph glyph-name="Edieresissmall" unicode="&#xf7eb;" horiz-adv-x="448" 
d="M105 105v224c0 69 -4 72 -42 80l-14 3c-7 4 -6 21 2 25c29 -2 60 -3 93 -3h142c44 0 84 1 93 3c1 -12 6 -59 11 -102c-4 -8 -20 -9 -26 -2c-6 26 -12 39 -18 48c-16 24 -61 24 -85 24h-44c-35 0 -36 -1 -36 -32v-111c0 -18 0 -20 19 -20h47c53 0 58 8 66 38l5 19
c5 7 20 6 25 -2c-2 -29 -2 -47 -2 -70c0 -25 0 -43 2 -72c-5 -8 -20 -9 -25 -2l-5 19c-8 30 -13 38 -66 38h-47c-19 0 -19 -3 -19 -23v-72c0 -30 2 -61 11 -72c9 -10 27 -14 84 -14c64 0 101 3 130 83c7 7 23 5 26 -4c-5 -42 -19 -92 -30 -111c-63 2 -116 3 -170 3h-88
c-32 0 -63 -1 -111 -3c-8 3 -9 20 -2 25l27 3c43 5 47 11 47 80zM138 512c-28 0 -48 18 -49 49c-1 29 20 52 49 52s50 -24 50 -48c0 -31 -21 -53 -50 -53zM323 512c-28 0 -50 19 -51 50c0 28 22 51 51 51s48 -24 48 -47c0 -31 -19 -54 -48 -54z" />
    <glyph glyph-name="Igravesmall" unicode="&#xf7ec;" horiz-adv-x="286" 
d="M105 105v224c0 69 -4 73 -47 80l-19 3c-7 5 -6 22 2 25c39 -2 70 -3 102 -3s63 1 102 3c8 -3 9 -20 2 -25l-19 -3c-43 -7 -47 -11 -47 -80v-224c0 -69 4 -73 47 -80l19 -3c7 -5 6 -22 -2 -25c-38 2 -71 3 -102 3c-32 0 -63 -1 -102 -3c-8 3 -9 20 -2 25l19 3
c43 7 47 11 47 80zM162 487l-112 113c-11 12 -22 26 -22 33c0 8 5 20 22 30c13 11 24 14 32 13c7 0 15 -12 23 -24l80 -150c-2 -8 -15 -16 -23 -15z" />
    <glyph glyph-name="Iacutesmall" unicode="&#xf7ed;" horiz-adv-x="286" 
d="M105 105v224c0 69 -4 73 -47 80l-19 3c-7 5 -6 22 2 25c39 -2 70 -3 102 -3s63 1 102 3c8 -3 9 -20 2 -25l-19 -3c-43 -7 -47 -11 -47 -80v-224c0 -69 4 -73 47 -80l19 -3c7 -5 6 -22 -2 -25c-38 2 -71 3 -102 3c-32 0 -63 -1 -102 -3c-8 3 -9 20 -2 25l19 3
c43 7 47 11 47 80zM243 590l-112 -113c-8 -1 -21 7 -23 15l80 150c8 12 16 24 23 24c8 1 19 -2 32 -13c17 -10 22 -22 22 -30c0 -7 -11 -21 -22 -33z" />
    <glyph glyph-name="Icircumflexsmall" unicode="&#xf7ee;" horiz-adv-x="286" 
d="M105 105v224c0 69 -4 73 -47 80l-19 3c-7 5 -6 22 2 25c39 -2 70 -3 102 -3s63 1 102 3c8 -3 9 -20 2 -25l-19 -3c-43 -7 -47 -11 -47 -80v-224c0 -69 4 -73 47 -80l19 -3c7 -5 6 -22 -2 -25c-38 2 -71 3 -102 3c-32 0 -63 -1 -102 -3c-8 3 -9 20 -2 25l19 3
c43 7 47 11 47 80zM243 487l-80 80c-11 11 -16 11 -27 0l-80 -80c-7 0 -20 3 -22 11l97 163c11 18 25 18 36 0l98 -163c-3 -8 -17 -11 -22 -11z" />
    <glyph glyph-name="Idieresissmall" unicode="&#xf7ef;" horiz-adv-x="286" 
d="M105 105v224c0 69 -4 73 -47 80l-19 3c-7 5 -6 22 2 25c39 -2 70 -3 102 -3s63 1 102 3c8 -3 9 -20 2 -25l-19 -3c-43 -7 -47 -11 -47 -80v-224c0 -69 4 -73 47 -80l19 -3c7 -5 6 -22 -2 -25c-38 2 -71 3 -102 3c-32 0 -63 -1 -102 -3c-8 3 -9 20 -2 25l19 3
c43 7 47 11 47 80zM62 517c-29 0 -48 17 -48 48c-3 30 18 53 48 53s50 -24 50 -49c0 -30 -20 -52 -50 -52zM231 517c-29 0 -51 18 -52 50c0 28 22 51 52 51s47 -24 47 -48c0 -30 -17 -53 -47 -53z" />
    <glyph glyph-name="Ethsmall" unicode="&#xf7f0;" horiz-adv-x="579" 
d="M111 105v105h-71c-7 8 -7 26 0 32h71v75c0 65 -1 82 -24 85l-30 4c-9 3 -8 22 1 25c56 4 112 6 193 6c56 0 105 -6 152 -22c91 -31 138 -104 138 -196c0 -79 -41 -152 -121 -193c-45 -23 -101 -31 -151 -31c-45 0 -90 5 -120 5c-32 0 -63 -1 -102 -3c-8 3 -9 20 -2 25
l19 3c43 7 47 11 47 80zM187 358v-116h113c7 -6 8 -24 0 -32h-113v-90c0 -64 10 -96 86 -96c120 0 179 75 179 197c0 123 -86 187 -199 187c-33 0 -52 -4 -60 -11c-6 -4 -6 -17 -6 -39z" />
    <glyph glyph-name="Ntildesmall" unicode="&#xf7f1;" horiz-adv-x="579" 
d="M449 164v116c0 100 -6 126 -43 129l-32 3c-7 6 -6 20 2 25c37 -2 60 -3 89 -3s51 1 83 3c8 -5 8 -20 1 -25l-30 -3c-26 -3 -34 -30 -34 -129v-168c0 -20 0 -101 3 -116c-3 -6 -12 -11 -21 -9c-11 14 -31 35 -93 102l-152 162c-38 40 -64 66 -77 77c-4 0 -4 -11 -4 -42
v-132c0 -100 6 -126 43 -129l32 -3c8 -6 6 -20 -2 -25c-37 2 -60 3 -89 3s-48 -1 -83 -3c-8 4 -8 20 -1 25l30 3c26 3 34 30 34 129v179c0 33 -1 47 -21 62c-8 6 -27 12 -37 14l-15 3c-7 6 -7 21 2 25c38 -3 65 -3 86 -3c14 0 28 1 40 3c20 -38 57 -81 98 -123l94 -97
c22 -22 80 -85 91 -93c6 2 6 16 6 40zM285 598h53c39 0 51 6 74 40c5 3 17 2 20 -5c-7 -28 -24 -62 -38 -75c-15 -14 -27 -16 -49 -16h-53c-42 0 -61 -16 -80 -51c-5 -5 -16 -3 -19 4c3 15 21 64 37 80s31 23 55 23z" />
    <glyph glyph-name="Ogravesmall" unicode="&#xf7f2;" horiz-adv-x="566" 
d="M285 448c161 0 243 -107 243 -229c0 -135 -102 -233 -243 -233c-155 0 -247 101 -247 227c0 133 102 235 247 235zM278 419c-72 0 -151 -49 -151 -190c0 -103 47 -214 163 -214c76 0 149 52 149 189c0 107 -51 215 -161 215zM301 497l-112 113c-11 12 -22 26 -22 33
c0 8 6 20 22 30c13 11 24 14 32 13c8 0 17 -12 23 -24l80 -149c-2 -9 -15 -17 -23 -16z" />
    <glyph glyph-name="Oacutesmall" unicode="&#xf7f3;" horiz-adv-x="566" 
d="M285 448c161 0 243 -107 243 -229c0 -135 -102 -233 -243 -233c-155 0 -247 101 -247 227c0 133 102 235 247 235zM278 419c-72 0 -151 -49 -151 -190c0 -103 47 -214 163 -214c76 0 149 52 149 189c0 107 -51 215 -161 215zM373 590l-102 -103c-7 -1 -19 6 -21 14
l73 136c6 11 14 22 21 22c7 1 17 -2 29 -12c15 -9 20 -20 20 -27s-10 -19 -20 -30z" />
    <glyph glyph-name="Ocircumflexsmall" unicode="&#xf7f4;" horiz-adv-x="566" 
d="M285 448c161 0 243 -107 243 -229c0 -135 -102 -233 -243 -233c-155 0 -247 101 -247 227c0 133 102 235 247 235zM278 419c-72 0 -151 -49 -151 -190c0 -103 47 -214 163 -214c76 0 149 52 149 189c0 107 -51 215 -161 215zM375 487l-80 79c-11 10 -16 12 -27 1l-80 -80
c-7 0 -20 3 -22 11l98 163c11 18 24 18 35 0l98 -163c-2 -8 -16 -11 -22 -11z" />
    <glyph glyph-name="Otildesmall" unicode="&#xf7f5;" horiz-adv-x="566" 
d="M285 448c161 0 243 -107 243 -229c0 -135 -102 -233 -243 -233c-155 0 -247 101 -247 227c0 133 102 235 247 235zM278 419c-72 0 -151 -49 -151 -190c0 -103 47 -214 163 -214c76 0 149 52 149 189c0 107 -51 215 -161 215zM258 598h54c39 0 51 7 74 40c5 4 17 3 20 -4
c-6 -28 -24 -61 -38 -76c-15 -13 -28 -16 -50 -16h-53c-42 0 -61 -16 -81 -52c-5 -4 -15 -2 -19 4c4 16 22 65 37 81c16 17 31 23 56 23z" />
    <glyph glyph-name="Odieresissmall" unicode="&#xf7f6;" horiz-adv-x="566" 
d="M285 448c161 0 243 -107 243 -229c0 -135 -102 -233 -243 -233c-155 0 -247 101 -247 227c0 133 102 235 247 235zM278 419c-72 0 -151 -49 -151 -190c0 -103 47 -214 163 -214c76 0 149 52 149 189c0 107 -51 215 -161 215zM197 517c-29 0 -48 17 -48 48
c-3 30 18 53 48 53s50 -24 50 -49c0 -30 -20 -52 -50 -52zM371 517c-29 0 -51 18 -52 50c0 28 22 51 52 51s47 -24 47 -48c0 -30 -17 -53 -47 -53z" />
    <glyph glyph-name="OEsmall" unicode="&#xf6fa;" horiz-adv-x="731" 
d="M441 434h128c44 0 84 1 93 3c1 -12 6 -59 11 -102c-4 -8 -20 -9 -26 -2c-6 26 -12 39 -18 48c-16 24 -61 24 -85 24h-44c-35 0 -36 -1 -36 -32v-111c0 -18 0 -20 19 -20h47c53 0 58 8 66 38l5 19c5 7 20 6 25 -2c-2 -29 -2 -47 -2 -70c0 -25 0 -43 2 -72
c-5 -8 -20 -9 -25 -2l-5 19c-8 30 -13 38 -66 38h-47c-19 0 -19 -3 -19 -23v-72c0 -30 2 -61 11 -72c9 -10 27 -14 84 -14c64 0 101 3 130 83c7 7 23 5 26 -4c-5 -42 -19 -92 -30 -111c-63 2 -116 3 -170 3h-76c-52 0 -93 -6 -139 -6c-172 0 -262 94 -262 216
c0 120 88 230 271 230c46 0 86 -6 132 -6zM388 72v280c0 30 -3 43 -20 50c-15 6 -39 9 -61 9c-126 0 -180 -92 -180 -195c0 -108 68 -195 172 -195c45 0 89 5 89 51z" />
    <glyph glyph-name="Oslashsmall" unicode="&#xf7f8;" horiz-adv-x="566" 
d="M165 83l214 295c-25 25 -59 41 -101 41c-72 0 -153 -49 -153 -190c0 -51 12 -105 40 -146zM401 350l-214 -295c26 -24 60 -40 103 -40c76 0 151 52 151 189c0 53 -12 106 -40 146zM471 448l-32 -45c59 -42 89 -110 89 -184c0 -135 -102 -233 -243 -233
c-49 0 -92 10 -127 29l-38 -53c-16 2 -24 9 -26 22l35 49c-59 42 -91 107 -91 180c0 133 102 235 247 235c50 0 92 -10 125 -27l35 49c14 0 24 -8 26 -22z" />
    <glyph glyph-name="Ugravesmall" unicode="&#xf7f9;" horiz-adv-x="550" 
d="M96 169v160c0 69 -5 71 -47 80l-14 3c-7 5 -6 22 2 25c34 -2 65 -3 97 -3s63 1 102 3c8 -3 9 -20 2 -25l-19 -3c-43 -7 -47 -11 -47 -80v-141c0 -100 33 -168 130 -168c90 0 129 68 129 167v93c0 100 -6 123 -49 129l-21 3c-7 6 -6 20 2 25c32 -2 55 -3 84 -3s51 1 83 3
c8 -5 8 -20 1 -25l-30 -3c-26 -3 -34 -30 -34 -129v-99c0 -128 -59 -195 -186 -195c-64 0 -112 13 -142 42c-30 30 -43 76 -43 141zM314 487l-112 113c-11 12 -22 26 -22 33c0 8 5 20 22 30c13 11 24 14 32 13c7 0 15 -12 23 -24l80 -150c-2 -8 -15 -16 -23 -15z" />
    <glyph glyph-name="Uacutesmall" unicode="&#xf7fa;" horiz-adv-x="550" 
d="M96 169v160c0 69 -5 71 -47 80l-14 3c-7 5 -6 22 2 25c34 -2 65 -3 97 -3s63 1 102 3c8 -3 9 -20 2 -25l-19 -3c-43 -7 -47 -11 -47 -80v-141c0 -100 33 -168 130 -168c90 0 129 68 129 167v93c0 100 -6 123 -49 129l-21 3c-7 6 -6 20 2 25c32 -2 55 -3 84 -3s51 1 83 3
c8 -5 8 -20 1 -25l-30 -3c-26 -3 -34 -30 -34 -129v-99c0 -128 -59 -195 -186 -195c-64 0 -112 13 -142 42c-30 30 -43 76 -43 141zM392 605l-112 -113c-8 -1 -21 7 -23 15l80 150c8 12 16 24 23 24c8 1 19 -2 32 -13c17 -10 22 -22 22 -30c0 -7 -11 -21 -22 -33z" />
    <glyph glyph-name="Ucircumflexsmall" unicode="&#xf7fb;" horiz-adv-x="550" 
d="M96 169v160c0 69 -5 71 -47 80l-14 3c-7 5 -6 22 2 25c34 -2 65 -3 97 -3s63 1 102 3c8 -3 9 -20 2 -25l-19 -3c-43 -7 -47 -11 -47 -80v-141c0 -100 33 -168 130 -168c90 0 129 68 129 167v93c0 100 -6 123 -49 129l-21 3c-7 6 -6 20 2 25c32 -2 55 -3 84 -3s51 1 83 3
c8 -5 8 -20 1 -25l-30 -3c-26 -3 -34 -30 -34 -129v-99c0 -128 -59 -195 -186 -195c-64 0 -112 13 -142 42c-30 30 -43 76 -43 141zM389 492l-80 79c-11 10 -16 12 -27 1l-80 -80c-7 0 -20 3 -22 11l98 163c11 18 24 18 35 0l98 -163c-2 -8 -16 -11 -22 -11z" />
    <glyph glyph-name="Udieresissmall" unicode="&#xf7fc;" horiz-adv-x="550" 
d="M96 169v160c0 69 -5 71 -47 80l-14 3c-7 5 -6 22 2 25c34 -2 65 -3 97 -3s63 1 102 3c8 -3 9 -20 2 -25l-19 -3c-43 -7 -47 -11 -47 -80v-141c0 -100 33 -168 130 -168c90 0 129 68 129 167v93c0 100 -6 123 -49 129l-21 3c-7 6 -6 20 2 25c32 -2 55 -3 84 -3s51 1 83 3
c8 -5 8 -20 1 -25l-30 -3c-26 -3 -34 -30 -34 -129v-99c0 -128 -59 -195 -186 -195c-64 0 -112 13 -142 42c-30 30 -43 76 -43 141zM208 517c-29 0 -48 17 -48 48c-3 30 18 53 48 53s50 -24 50 -49c0 -30 -20 -52 -50 -52zM377 517c-29 0 -51 18 -52 50c0 28 22 51 52 51
s47 -24 47 -48c0 -30 -17 -53 -47 -53z" />
    <glyph glyph-name="Yacutesmall" unicode="&#xf7fd;" horiz-adv-x="438" 
d="M182 95v38c0 31 -3 39 -28 85l-73 135c-21 40 -31 49 -57 54l-26 5c-7 6 -5 22 3 25c33 -2 56 -3 92 -3c30 0 53 1 85 3c8 -4 11 -20 1 -25l-14 -3c-22 -5 -25 -11 -9 -42l37 -71c16 -30 30 -57 45 -83c16 27 31 51 48 83l40 73c15 28 17 37 -7 40l-21 3c-9 5 -8 21 2 25
c30 -2 53 -3 76 -3c22 0 43 1 71 3c8 -3 10 -20 2 -25l-24 -5c-31 -6 -36 -12 -67 -62l-62 -100c-36 -57 -38 -67 -38 -96v-54c0 -59 4 -65 47 -70l25 -3c7 -5 6 -22 -2 -25c-44 2 -77 3 -108 3c-32 0 -63 -1 -108 -3c-8 3 -9 20 -2 25l25 3c43 5 47 11 47 70zM336 595
l-112 -113c-8 -1 -21 7 -23 15l80 150c8 12 16 24 23 24c8 1 19 -2 32 -13c17 -10 22 -22 22 -30c0 -7 -11 -21 -22 -33z" />
    <glyph glyph-name="Thornsmall" unicode="&#xf7fe;" horiz-adv-x="452" 
d="M105 105v224c0 69 -4 73 -47 80l-19 3c-7 5 -6 22 2 25c39 -2 70 -3 102 -3s63 1 102 3c8 -3 9 -20 2 -25l-19 -3c-43 -7 -47 -11 -47 -71h80c28 0 60 -4 83 -12c27 -9 71 -39 71 -98c0 -57 -35 -87 -62 -100c-33 -16 -88 -23 -113 -22c-4 4 -4 15 0 18
c55 12 94 30 94 92c0 64 -42 96 -107 96c-44 0 -46 -8 -46 -48v-159c0 -69 4 -73 47 -80l19 -3c7 -5 6 -22 -2 -25c-38 2 -71 3 -102 3c-32 0 -63 -1 -102 -3c-8 3 -9 20 -2 25l19 3c43 7 47 11 47 80z" />
    <glyph glyph-name="Ydieresissmall" unicode="&#xf7ff;" horiz-adv-x="438" 
d="M182 95v38c0 31 -3 39 -28 85l-73 135c-21 40 -31 49 -57 54l-26 5c-7 6 -5 22 3 25c33 -2 56 -3 92 -3c30 0 53 1 85 3c8 -4 11 -20 1 -25l-14 -3c-22 -5 -25 -11 -9 -42l37 -71c16 -30 30 -57 45 -83c16 27 31 51 48 83l40 73c15 28 17 37 -7 40l-21 3c-9 5 -8 21 2 25
c30 -2 53 -3 76 -3c22 0 43 1 71 3c8 -3 10 -20 2 -25l-24 -5c-31 -6 -36 -12 -67 -62l-62 -100c-36 -57 -38 -67 -38 -96v-54c0 -59 4 -65 47 -70l25 -3c7 -5 6 -22 -2 -25c-44 2 -77 3 -108 3c-32 0 -63 -1 -108 -3c-8 3 -9 20 -2 25l25 3c43 5 47 11 47 70zM150 512
c-29 0 -48 17 -48 48c-3 30 18 53 48 53s50 -24 50 -49c0 -30 -20 -52 -50 -52zM319 512c-29 0 -51 18 -52 50c0 28 22 51 52 51s47 -24 47 -48c0 -30 -17 -53 -47 -53z" />
    <glyph glyph-name="commaaccent" unicode="&#xf6c3;" horiz-adv-x="250" 
d="M113 -58c29 0 67 -27 67 -83c0 -71 -51 -110 -110 -128c-8 4 -9 27 -5 31c24 8 63 31 63 70c0 31 -35 43 -42 47c-11 6 -15 15 -15 25c0 19 15 38 42 38z" />
    <glyph glyph-name="Abreve" unicode="&#x102;" horiz-adv-x="623" 
d="M451 96l-44 136c-7 22 -11 25 -41 25h-151c-25 0 -31 -3 -38 -24l-35 -105c-15 -45 -22 -72 -22 -83c0 -12 5 -18 29 -20l33 -3c7 -5 7 -21 -2 -25c-26 2 -57 2 -104 3c-33 0 -69 -2 -96 -3c-6 4 -8 20 -2 25l33 3c24 2 46 13 60 49c18 46 46 111 88 223l102 270
c14 36 20 55 17 71c24 7 41 25 52 38c6 0 13 -2 15 -9c13 -44 29 -90 44 -134l137 -402c29 -86 42 -101 85 -106l27 -3c7 -5 5 -21 0 -25c-41 2 -76 3 -121 3c-48 0 -86 -2 -115 -3c-8 4 -9 20 -2 25l29 3c21 2 35 8 35 18c0 11 -5 29 -13 53zM272 495l-63 -174
c-8 -23 -7 -24 21 -24h123c29 0 31 4 22 31l-54 163c-8 24 -17 51 -23 63h-2c-3 -5 -13 -29 -24 -59zM322 715c-78 0 -121 42 -119 128c5 5 23 5 28 0c11 -42 39 -66 91 -66c50 0 81 26 92 66c5 5 22 5 27 0c2 -86 -41 -128 -119 -128z" />
    <glyph glyph-name="Amacron" unicode="&#x100;" horiz-adv-x="623" 
d="M451 96l-44 136c-7 22 -11 25 -41 25h-151c-25 0 -31 -3 -38 -24l-35 -105c-15 -45 -22 -72 -22 -83c0 -12 5 -18 29 -20l33 -3c7 -5 7 -21 -2 -25c-26 2 -57 2 -104 3c-33 0 -69 -2 -96 -3c-6 4 -8 20 -2 25l33 3c24 2 46 13 60 49c18 46 46 111 88 223l102 270
c14 36 20 55 17 71c24 7 41 25 52 38c6 0 13 -2 15 -9c13 -44 29 -90 44 -134l137 -402c29 -86 42 -101 85 -106l27 -3c7 -5 5 -21 0 -25c-41 2 -76 3 -121 3c-48 0 -86 -2 -115 -3c-8 4 -9 20 -2 25l29 3c21 2 35 8 35 18c0 11 -5 29 -13 53zM272 495l-63 -174
c-8 -23 -7 -24 21 -24h123c29 0 31 4 22 31l-54 163c-8 24 -17 51 -23 63h-2c-3 -5 -13 -29 -24 -59zM425 722h-220c-11 13 -11 44 0 57h220c12 -13 12 -44 0 -57z" />
    <glyph glyph-name="Aogonek" unicode="&#x104;" horiz-adv-x="623" 
d="M230 297h123c29 0 31 4 22 31l-54 163c-8 24 -17 51 -23 63h-2c-3 -5 -13 -29 -24 -59l-63 -174c-8 -23 -7 -24 21 -24zM366 257h-151c-25 0 -31 -3 -38 -24l-35 -105c-15 -45 -22 -72 -22 -83c0 -12 5 -18 29 -20l33 -3c7 -5 7 -21 -2 -25c-26 2 -57 2 -104 3
c-33 0 -69 -2 -96 -3c-6 4 -8 20 -2 25l33 3c24 2 46 13 60 49c18 46 46 111 88 223l102 270c14 36 20 55 17 71c24 7 41 25 52 38c6 0 13 -2 15 -9c13 -44 29 -90 44 -134l137 -402c29 -86 42 -101 85 -106l27 -3c7 -5 5 -21 0 -25c-41 2 -76 3 -121 3h-11
c-11 -28 -16 -59 -16 -84c0 -49 33 -74 70 -74c12 0 29 1 42 8c5 -3 8 -8 8 -17c-25 -31 -63 -42 -99 -42c-53 0 -86 34 -86 85c0 38 24 81 56 123c-35 0 -59 -1 -79 -2c-8 4 -9 20 -2 25l29 3c21 2 35 8 35 18c0 11 -5 29 -13 53l-44 136c-7 22 -11 25 -41 25z" />
    <glyph glyph-name="Cacute" unicode="&#x106;" horiz-adv-x="696" 
d="M44 326c0 111 50 206 126 265c73 57 166 85 270 85c54 0 130 -11 177 -24c12 -3 19 -5 28 -4c1 -23 6 -86 14 -147c-5 -7 -20 -8 -27 -2c-15 68 -60 146 -205 146c-153 0 -283 -97 -283 -304c0 -210 133 -326 297 -326c129 0 186 84 209 143c7 5 22 3 26 -4
c-7 -52 -33 -118 -48 -137c-12 -2 -24 -6 -35 -10c-22 -8 -94 -23 -158 -23c-90 0 -176 18 -249 67c-80 55 -142 146 -142 275zM539 778l-167 -72c-7 2 -13 13 -10 24l141 114c12 9 21 14 27 14c7 0 20 -7 28 -23c10 -19 10 -33 7 -41c-4 -5 -11 -10 -26 -16z" />
    <glyph glyph-name="Ccaron" unicode="&#x10c;" horiz-adv-x="696" 
d="M44 326c0 111 50 206 126 265c73 57 166 85 270 85c54 0 130 -11 177 -24c12 -3 19 -5 28 -4c1 -23 6 -86 14 -147c-5 -7 -20 -8 -27 -2c-15 68 -60 146 -205 146c-153 0 -283 -97 -283 -304c0 -210 133 -326 297 -326c129 0 186 84 209 143c7 5 22 3 26 -4
c-7 -52 -33 -118 -48 -137c-12 -2 -24 -6 -35 -10c-22 -8 -94 -23 -158 -23c-90 0 -176 18 -249 67c-80 55 -142 146 -142 275zM398 713l-124 108c0 8 7 19 15 19l114 -55c13 -8 17 -7 32 0l115 55c7 -1 11 -11 11 -19l-122 -108c-14 -12 -27 -12 -41 0z" />
    <glyph glyph-name="Dcaron" unicode="&#x10e;" horiz-adv-x="780" 
d="M128 150v380c0 70 -5 91 -47 97l-22 3c-8 5 -9 21 1 25c85 5 166 8 251 8c84 0 155 -6 220 -30c135 -49 203 -163 203 -295c0 -127 -61 -236 -175 -298c-65 -35 -147 -48 -224 -48c-64 0 -128 8 -163 8c-42 0 -78 -1 -125 -3c-6 3 -8 19 -2 25l23 3c58 8 60 20 60 125z
M210 542v-369c0 -53 3 -85 20 -109c22 -31 60 -41 123 -41c194 0 281 127 281 313c0 110 -53 296 -315 296c-59 0 -91 -8 -99 -14s-10 -31 -10 -76zM325 713l-124 108c0 8 7 19 15 19l114 -55c13 -8 17 -7 32 0l115 55c7 -1 11 -11 11 -19l-122 -108c-14 -12 -27 -12 -41 0z
" />
    <glyph glyph-name="Dcroat" unicode="&#x110;" horiz-adv-x="786" 
d="M128 150v176h-90c-9 7 -9 28 0 35h90v144c0 90 -3 120 -52 126l-17 2c-8 4 -9 20 1 24c85 3 170 6 255 6c84 0 151 -5 216 -29c135 -49 203 -163 203 -294c0 -129 -61 -238 -175 -300c-65 -35 -147 -48 -224 -48c-64 0 -128 8 -163 8c-42 0 -78 -1 -125 -3
c-6 3 -8 19 -2 25l23 3c58 8 60 20 60 125zM210 542v-181h144c9 -7 9 -28 0 -35h-144v-153c0 -53 3 -85 20 -109c22 -31 60 -41 123 -41c194 0 281 127 281 313c0 108 -53 296 -315 296c-59 0 -91 -8 -99 -14s-10 -31 -10 -76z" />
    <glyph glyph-name="Ecaron" unicode="&#x11a;" horiz-adv-x="584" 
d="M128 150v360c0 104 -2 119 -61 126l-16 2c-6 4 -4 22 2 25c43 -2 77 -3 118 -3h188c64 0 123 0 135 3c6 -17 12 -89 16 -133c-4 -6 -20 -8 -25 -2c-15 47 -24 82 -76 95c-21 5 -53 6 -97 6h-72c-30 0 -30 -2 -30 -40v-200c0 -28 3 -28 33 -28h58c42 0 73 2 85 6
s19 10 24 35l8 41c5 6 22 6 26 -1c0 -24 -4 -63 -4 -101c0 -36 4 -74 4 -96c-4 -7 -21 -7 -26 -1l-9 39c-4 18 -11 33 -31 38c-14 4 -38 5 -77 5h-58c-30 0 -33 -1 -33 -27v-141c0 -53 3 -87 19 -104c12 -12 33 -23 121 -23c77 0 106 4 128 15c18 10 45 45 71 97
c7 5 21 2 25 -7c-7 -35 -32 -112 -45 -139c-90 2 -179 3 -268 3h-90c-43 0 -77 -1 -136 -3c-6 3 -8 19 -2 25l33 3c57 5 62 20 62 125zM284 713l-123 113c0 9 6 20 14 20l114 -57c13 -8 17 -7 32 0l116 57c6 -1 11 -11 11 -20l-122 -113c-14 -13 -28 -12 -42 0z" />
    <glyph glyph-name="Edotaccent" unicode="&#x116;" horiz-adv-x="584" 
d="M128 150v360c0 104 -2 119 -61 126l-16 2c-6 4 -4 22 2 25c43 -2 77 -3 118 -3h188c64 0 123 0 135 3c6 -17 12 -89 16 -133c-4 -6 -20 -8 -25 -2c-15 47 -24 82 -76 95c-21 5 -53 6 -97 6h-72c-30 0 -30 -2 -30 -40v-200c0 -28 3 -28 33 -28h58c42 0 73 2 85 6
s19 10 24 35l8 41c5 6 22 6 26 -1c0 -24 -4 -63 -4 -101c0 -36 4 -74 4 -96c-4 -7 -21 -7 -26 -1l-9 39c-4 18 -11 33 -31 38c-14 4 -38 5 -77 5h-58c-30 0 -33 -1 -33 -27v-141c0 -53 3 -87 19 -104c12 -12 33 -23 121 -23c77 0 106 4 128 15c18 10 45 45 71 97
c7 5 21 2 25 -7c-7 -35 -32 -112 -45 -139c-90 2 -179 3 -268 3h-90c-43 0 -77 -1 -136 -3c-6 3 -8 19 -2 25l33 3c57 5 62 20 62 125zM308 707c-31 0 -53 19 -54 53c-1 30 22 54 54 54c31 0 53 -26 53 -51c0 -33 -22 -56 -53 -56z" />
    <glyph glyph-name="Emacron" unicode="&#x112;" horiz-adv-x="584" 
d="M128 150v360c0 104 -2 119 -61 126l-16 2c-6 4 -4 22 2 25c43 -2 77 -3 118 -3h188c64 0 123 0 135 3c6 -17 12 -89 16 -133c-4 -6 -20 -8 -25 -2c-15 47 -24 82 -76 95c-21 5 -53 6 -97 6h-72c-30 0 -30 -2 -30 -40v-200c0 -28 3 -28 33 -28h58c42 0 73 2 85 6
s19 10 24 35l8 41c5 6 22 6 26 -1c0 -24 -4 -63 -4 -101c0 -36 4 -74 4 -96c-4 -7 -21 -7 -26 -1l-9 39c-4 18 -11 33 -31 38c-14 4 -38 5 -77 5h-58c-30 0 -33 -1 -33 -27v-141c0 -53 3 -87 19 -104c12 -12 33 -23 121 -23c77 0 106 4 128 15c18 10 45 45 71 97
c7 5 21 2 25 -7c-7 -35 -32 -112 -45 -139c-90 2 -179 3 -268 3h-90c-43 0 -77 -1 -136 -3c-6 3 -8 19 -2 25l33 3c57 5 62 20 62 125zM410 722h-220c-11 13 -11 44 0 57h220c12 -13 12 -44 0 -57z" />
    <glyph glyph-name="Eogonek" unicode="&#x118;" horiz-adv-x="584" 
d="M128 150v360c0 104 -2 119 -61 126l-16 2c-6 4 -4 22 2 25c43 -2 77 -3 118 -3h188c64 0 123 0 135 3c6 -17 12 -89 16 -133c-4 -6 -20 -8 -25 -2c-15 47 -24 82 -76 95c-21 5 -53 6 -97 6h-72c-30 0 -30 -2 -30 -40v-200c0 -28 3 -28 33 -28h58c42 0 73 2 85 6
s19 10 24 35l8 41c5 6 22 6 26 -1c0 -24 -4 -63 -4 -101c0 -36 4 -74 4 -96c-4 -7 -21 -7 -26 -1l-9 39c-4 18 -11 33 -31 38c-14 4 -38 5 -77 5h-58c-30 0 -33 -1 -33 -27v-141c0 -53 3 -87 19 -104c12 -12 33 -23 121 -23c77 0 106 4 128 15c18 10 45 45 71 97
c7 5 21 2 25 -7c-7 -35 -32 -112 -45 -139c-13 0 -27 0 -40 1c-15 -28 -24 -62 -24 -87c0 -44 33 -69 70 -69c12 0 29 1 42 8c5 -3 8 -8 8 -17c-25 -31 -67 -42 -103 -42c-49 0 -82 37 -82 81c0 41 23 84 64 126c-68 1 -135 2 -203 2h-90c-43 0 -77 -1 -136 -3
c-6 3 -8 19 -2 25l33 3c57 5 62 20 62 125z" />
    <glyph glyph-name="Gbreve" unicode="&#x11e;" horiz-adv-x="747" 
d="M648 158v-56c0 -40 6 -64 24 -71c3 -3 3 -9 -1 -12c-12 0 -30 -4 -49 -9c-53 -14 -125 -26 -179 -26c-119 0 -228 33 -305 111c-60 60 -92 139 -92 227c0 85 28 171 90 237c67 70 166 117 317 117c57 0 110 -11 127 -15c19 -4 50 -11 62 -9c0 -33 6 -85 15 -145
c-3 -8 -21 -9 -27 -3c-28 108 -103 142 -205 142c-194 0 -279 -138 -279 -288c0 -192 99 -343 300 -343c62 0 99 13 110 30c5 7 10 25 10 57v40c0 84 -3 90 -65 97l-44 5c-8 4 -7 22 0 25c29 -2 84 -3 143 -3c39 0 73 1 106 3c7 -4 8 -19 1 -25l-16 -2
c-42 -5 -43 -33 -43 -84zM404 725c-78 0 -121 42 -119 128c5 5 23 5 28 0c11 -41 39 -65 91 -65c50 0 81 22 92 65c5 5 22 5 27 0c2 -86 -41 -128 -119 -128z" />
    <glyph glyph-name="Gcommaaccent" unicode="&#x122;" horiz-adv-x="747" 
d="M648 158v-56c0 -40 6 -64 24 -71c3 -3 3 -9 -1 -12c-12 0 -30 -4 -49 -9c-53 -14 -125 -26 -179 -26c-119 0 -228 33 -305 111c-60 60 -92 139 -92 227c0 85 28 171 90 237c67 70 166 117 317 117c57 0 110 -11 127 -15c19 -4 50 -11 62 -9c0 -33 6 -85 15 -145
c-3 -8 -21 -9 -27 -3c-28 108 -103 142 -205 142c-194 0 -279 -138 -279 -288c0 -192 99 -343 300 -343c62 0 99 13 110 30c5 7 10 25 10 57v40c0 84 -3 90 -65 97l-44 5c-8 4 -7 22 0 25c29 -2 84 -3 143 -3c39 0 73 1 106 3c7 -4 8 -19 1 -25l-16 -2
c-42 -5 -43 -33 -43 -84zM410 -58c29 0 67 -27 67 -83c0 -71 -51 -110 -110 -128c-8 4 -9 27 -5 31c24 8 63 31 63 70c0 31 -35 43 -42 47c-11 6 -15 15 -15 25c0 19 15 38 42 38z" />
    <glyph glyph-name="Imacron" unicode="&#x12a;" horiz-adv-x="338" 
d="M128 152v356c0 106 -2 123 -61 128l-25 2c-6 4 -4 22 2 25c50 -2 84 -3 126 -3c40 0 74 1 124 3c6 -3 8 -21 2 -25l-25 -2c-59 -5 -61 -22 -61 -128v-356c0 -106 2 -120 61 -127l25 -3c6 -4 4 -22 -2 -25c-50 2 -84 3 -124 3c-42 0 -76 -1 -126 -3c-6 3 -8 19 -2 25l25 3
c59 7 61 21 61 127zM277 722h-210c-10 13 -10 44 0 57h210c11 -13 11 -44 0 -57z" />
    <glyph glyph-name="Iogonek" unicode="&#x12e;" horiz-adv-x="338" 
d="M128 152v356c0 106 -2 123 -61 128l-25 2c-6 4 -4 22 2 25c50 -2 84 -3 126 -3c40 0 74 1 124 3c6 -3 8 -21 2 -25l-25 -2c-59 -5 -61 -22 -61 -128v-356c0 -106 2 -120 61 -127l25 -3c6 -4 4 -22 -2 -25c-50 2 -84 3 -124 3h-3c-12 -28 -17 -59 -17 -84
c0 -49 33 -74 70 -74c12 0 29 1 42 8c5 -3 8 -8 8 -17c-25 -31 -63 -42 -99 -42c-53 0 -86 34 -86 85c0 38 24 81 56 123c-30 0 -59 0 -97 -2c-6 3 -8 19 -2 25l25 3c59 7 61 21 61 127z" />
    <glyph glyph-name="Kcommaaccent" unicode="&#x136;" horiz-adv-x="675" 
d="M128 150v360c0 105 -2 121 -60 126l-25 2c-6 4 -4 22 2 25c49 -2 81 -3 126 -3c39 0 73 1 116 3c6 -3 8 -21 2 -25l-19 -2c-58 -6 -60 -21 -60 -126v-115c0 -19 2 -38 13 -38c9 0 21 6 28 11c14 12 40 38 51 48l108 107c19 18 68 69 78 83c5 7 7 12 7 16s-4 7 -17 10
l-27 6c-7 7 -6 20 2 25c35 -2 75 -3 110 -3s69 1 99 3c7 -5 8 -19 2 -25c-26 -2 -65 -12 -93 -28s-84 -63 -140 -116l-90 -85c-14 -14 -23 -23 -23 -31c0 -7 6 -15 19 -31c95 -109 172 -199 250 -281c24 -24 46 -37 80 -41l27 -3c7 -5 5 -22 -2 -25c-26 2 -65 3 -112 3
c-41 0 -76 -1 -122 -3c-7 2 -10 19 -4 25l23 4c14 2 24 5 24 10c0 6 -7 14 -14 23c-19 24 -45 51 -83 94l-80 90c-57 64 -73 84 -97 84c-15 0 -17 -13 -17 -48v-129c0 -105 2 -119 58 -125l27 -3c6 -4 4 -22 -2 -25c-49 2 -83 3 -122 3c-41 0 -75 -1 -116 -3
c-6 3 -8 18 -2 25l20 3c53 8 55 20 55 125zM343 -58c31 0 73 -27 73 -83c0 -71 -52 -110 -117 -128c-9 4 -14 27 -9 31c26 8 64 31 64 70c0 31 -33 43 -41 47c-12 6 -17 15 -17 25c0 19 17 38 47 38z" />
    <glyph glyph-name="Lacute" unicode="&#x139;" horiz-adv-x="553" 
d="M128 150v360c0 105 -2 121 -65 126l-25 2c-6 4 -4 22 2 25c56 -2 90 -3 130 -3c39 0 73 1 123 3c6 -3 8 -21 2 -25l-24 -2c-59 -5 -61 -21 -61 -126v-348c0 -63 3 -89 21 -108c11 -11 30 -23 109 -23c85 0 106 4 122 13c20 12 46 48 66 99c6 5 25 1 25 -6
c0 -11 -28 -113 -42 -140c-51 2 -146 3 -249 3h-92c-42 0 -74 -1 -130 -3c-6 3 -8 19 -2 25l30 3c58 6 60 20 60 125zM319 778l-167 -72c-7 2 -13 13 -10 24l141 115c12 8 21 13 27 13c7 0 20 -7 28 -23c10 -19 10 -33 7 -41c-4 -5 -11 -10 -26 -16z" />
    <glyph glyph-name="Lcaron" unicode="&#x13d;" horiz-adv-x="553" 
d="M128 150v360c0 105 -2 121 -65 126l-25 2c-6 4 -4 22 2 25c56 -2 90 -3 130 -3c39 0 73 1 123 3c6 -3 8 -21 2 -25l-24 -2c-59 -5 -61 -21 -61 -126v-348c0 -63 3 -89 21 -108c11 -11 30 -23 109 -23c85 0 106 6 123 15c19 10 45 46 65 97c6 5 25 1 25 -6
c0 -11 -28 -113 -42 -140c-51 2 -146 3 -249 3h-92c-42 0 -74 -1 -130 -3c-6 3 -8 19 -2 25l30 3c58 6 60 20 60 125zM399 680c43 0 75 -38 75 -81c0 -68 -48 -106 -112 -122c-7 5 -10 17 -6 26c29 14 59 42 59 71s-23 44 -35 45c-13 1 -25 7 -25 25c0 14 8 36 44 36z" />
    <glyph glyph-name="Lcommaaccent" unicode="&#x13b;" horiz-adv-x="553" 
d="M128 150v360c0 105 -2 121 -65 126l-25 2c-6 4 -4 22 2 25c56 -2 90 -3 130 -3c39 0 73 1 123 3c6 -3 8 -21 2 -25l-24 -2c-59 -5 -61 -21 -61 -126v-348c0 -63 3 -89 21 -108c11 -11 30 -23 109 -23c85 0 106 4 122 13c20 12 46 48 66 99c6 5 25 1 25 -6
c0 -11 -28 -113 -42 -140c-51 2 -146 3 -249 3h-92c-42 0 -74 -1 -130 -3c-6 3 -8 19 -2 25l30 3c58 6 60 20 60 125zM294 -58c31 0 73 -27 73 -83c0 -71 -56 -110 -121 -128c-9 4 -10 27 -5 31c26 8 69 31 69 70c0 31 -38 43 -46 47c-12 6 -17 15 -17 25c0 19 17 38 47 38z
" />
    <glyph glyph-name="Nacute" unicode="&#x143;" horiz-adv-x="783" 
d="M666 409v-239c0 -30 0 -149 3 -175c-2 -6 -8 -11 -19 -11c-12 17 -41 52 -128 151l-232 264c-27 31 -95 113 -116 135h-2c-4 -12 -5 -35 -5 -65v-218c0 -47 1 -177 18 -207c6 -11 26 -17 51 -19l31 -3c6 -8 5 -20 -2 -25c-45 2 -80 3 -117 3c-42 0 -69 -1 -104 -3
c-7 5 -8 19 -2 25l27 3c23 3 39 9 44 20c14 36 13 158 13 206v289c0 28 -1 49 -22 72c-14 14 -38 21 -62 24l-17 2c-6 6 -6 21 2 25c42 -3 95 -3 113 -3c16 0 33 1 46 3c20 -51 138 -183 171 -220l97 -109c69 -77 118 -133 165 -181h2c4 5 4 21 4 42v214
c0 47 -1 177 -20 207c-6 9 -22 15 -62 20l-17 2c-7 6 -6 22 2 25c46 -2 80 -3 118 -3c43 0 69 1 103 3c8 -5 8 -19 2 -25l-14 -2c-32 -5 -52 -13 -56 -21c-17 -36 -15 -160 -15 -206zM518 778l-167 -72c-7 2 -13 13 -10 24l141 115c12 8 21 13 27 13c7 0 20 -7 28 -23
c10 -19 10 -33 6 -41c-3 -5 -10 -10 -25 -16z" />
    </font>
</defs>
</svg>
